  0
SECTION
  2
HEADER
  9
$ACADVER
  1
AC1015
  9
$ACADMAINTVER
 70
     6
  9
$DWGCODEPAGE
  3
ANSI_932
  9
$INSBASE
 10
0.0
 20
0.0
 30
0.0
  9
$EXTMIN
 10
-117.6191826019082
 20
817.4676032972884
 30
-0.0000000000112498
  9
$EXTMAX
 10
682.4052254998825
 20
1367.551739733418
 30
0.0000000000002956
  9
$LIMMIN
 10
0.0
 20
0.0
  9
$LIMMAX
 10
420.0
 20
297.0
  9
$ORTHOMODE
 70
     0
  9
$REGENMODE
 70
     1
  9
$FILLMODE
 70
     1
  9
$QTEXTMODE
 70
     0
  9
$MIRRTEXT
 70
     1
  9
$LTSCALE
 40
1.0
  9
$ATTMODE
 70
     1
  9
$TEXTSIZE
 40
2.5
  9
$TRACEWID
 40
1.0
  9
$TEXTSTYLE
  7
Standard
  9
$CLAYER
  8
0
  9
$CELTYPE
  6
ByLayer
  9
$CECOLOR
 62
   256
  9
$CELTSCALE
 40
0.5
  9
$DISPSILH
 70
     0
  9
$DIMSCALE
 40
1.0
  9
$DIMASZ
 40
5.0
  9
$DIMEXO
 40
2.0
  9
$DIMDLI
 40
3.75
  9
$DIMRND
 40
0.0
  9
$DIMDLE
 40
0.0
  9
$DIMEXE
 40
5.0
  9
$DIMTP
 40
0.0
  9
$DIMTM
 40
0.0
  9
$DIMTXT
 40
6.0
  9
$DIMCEN
 40
2.5
  9
$DIMTSZ
 40
0.0
  9
$DIMTOL
 70
     0
  9
$DIMLIM
 70
     0
  9
$DIMTIH
 70
     0
  9
$DIMTOH
 70
     0
  9
$DIMSE1
 70
     0
  9
$DIMSE2
 70
     0
  9
$DIMTAD
 70
     1
  9
$DIMZIN
 70
     8
  9
$DIMBLK
  1

  9
$DIMASO
 70
     1
  9
$DIMSHO
 70
     1
  9
$DIMPOST
  1

  9
$DIMAPOST
  1

  9
$DIMALT
 70
     0
  9
$DIMALTD
 70
     3
  9
$DIMALTF
 40
0.1
  9
$DIMLFAC
 40
1.0
  9
$DIMTOFL
 70
     1
  9
$DIMTVP
 40
0.0
  9
$DIMTIX
 70
     0
  9
$DIMSOXD
 70
     0
  9
$DIMSAH
 70
     0
  9
$DIMBLK1
  1

  9
$DIMBLK2
  1

  9
$DIMSTYLE
  2
ISO-25
  9
$DIMCLRD
 70
     7
  9
$DIMCLRE
 70
     7
  9
$DIMCLRT
 70
     0
  9
$DIMTFAC
 40
1.0
  9
$DIMGAP
 40
3.0
  9
$DIMJUST
 70
     0
  9
$DIMSD1
 70
     0
  9
$DIMSD2
 70
     0
  9
$DIMTOLJ
 70
     0
  9
$DIMTZIN
 70
     8
  9
$DIMALTZ
 70
     0
  9
$DIMALTTZ
 70
     0
  9
$DIMUPT
 70
     0
  9
$DIMDEC
 70
     2
  9
$DIMTDEC
 70
     2
  9
$DIMALTU
 70
     2
  9
$DIMALTTD
 70
     3
  9
$DIMTXSTY
  7
Standard
  9
$DIMAUNIT
 70
     0
  9
$DIMADEC
 70
     0
  9
$DIMALTRND
 40
0.0
  9
$DIMAZIN
 70
     0
  9
$DIMDSEP
 70
    46
  9
$DIMATFIT
 70
     3
  9
$DIMFRAC
 70
     0
  9
$DIMLDRBLK
  1

  9
$DIMLUNIT
 70
     2
  9
$DIMLWD
 70
     9
  9
$DIMLWE
 70
     9
  9
$DIMTMOVE
 70
     0
  9
$LUNITS
 70
     2
  9
$LUPREC
 70
     4
  9
$SKETCHINC
 40
1.0
  9
$FILLETRAD
 40
0.5
  9
$AUNITS
 70
     0
  9
$AUPREC
 70
     0
  9
$MENU
  1
.
  9
$ELEVATION
 40
0.0
  9
$PELEVATION
 40
0.0
  9
$THICKNESS
 40
0.0
  9
$LIMCHECK
 70
     0
  9
$CHAMFERA
 40
0.5
  9
$CHAMFERB
 40
0.5
  9
$CHAMFERC
 40
20.0
  9
$CHAMFERD
 40
0.0
  9
$SKPOLY
 70
     0
  9
$TDCREATE
 40
2454873.622250069
  9
$TDUCREATE
 40
2454873.247250069
  9
$TDUPDATE
 40
2459109.308788333
  9
$TDUUPDATE
 40
2459108.933788333
  9
$TDINDWG
 40
0.7489748843
  9
$TDUSRTIMER
 40
0.7489748843
  9
$USRTIMER
 70
     1
  9
$ANGBASE
 50
0.0
  9
$ANGDIR
 70
     0
  9
$PDMODE
 70
     0
  9
$PDSIZE
 40
0.0
  9
$PLINEWID
 40
0.0
  9
$SPLFRAME
 70
     0
  9
$SPLINETYPE
 70
     6
  9
$SPLINESEGS
 70
     8
  9
$HANDSEED
  5
A93B
  9
$SURFTAB1
 70
     6
  9
$SURFTAB2
 70
     6
  9
$SURFTYPE
 70
     6
  9
$SURFU
 70
     6
  9
$SURFV
 70
     6
  9
$UCSBASE
  2

  9
$UCSNAME
  2

  9
$UCSORG
 10
0.0
 20
0.0
 30
0.0
  9
$UCSXDIR
 10
1.0
 20
0.0
 30
0.0
  9
$UCSYDIR
 10
0.0
 20
1.0
 30
0.0
  9
$UCSORTHOREF
  2

  9
$UCSORTHOVIEW
 70
     0
  9
$UCSORGTOP
 10
0.0
 20
0.0
 30
0.0
  9
$UCSORGBOTTOM
 10
0.0
 20
0.0
 30
0.0
  9
$UCSORGLEFT
 10
0.0
 20
0.0
 30
0.0
  9
$UCSORGRIGHT
 10
0.0
 20
0.0
 30
0.0
  9
$UCSORGFRONT
 10
0.0
 20
0.0
 30
0.0
  9
$UCSORGBACK
 10
0.0
 20
0.0
 30
0.0
  9
$PUCSBASE
  2

  9
$PUCSNAME
  2

  9
$PUCSORG
 10
0.0
 20
0.0
 30
0.0
  9
$PUCSXDIR
 10
1.0
 20
0.0
 30
0.0
  9
$PUCSYDIR
 10
0.0
 20
1.0
 30
0.0
  9
$PUCSORTHOREF
  2

  9
$PUCSORTHOVIEW
 70
     0
  9
$PUCSORGTOP
 10
0.0
 20
0.0
 30
0.0
  9
$PUCSORGBOTTOM
 10
0.0
 20
0.0
 30
0.0
  9
$PUCSORGLEFT
 10
0.0
 20
0.0
 30
0.0
  9
$PUCSORGRIGHT
 10
0.0
 20
0.0
 30
0.0
  9
$PUCSORGFRONT
 10
0.0
 20
0.0
 30
0.0
  9
$PUCSORGBACK
 10
0.0
 20
0.0
 30
0.0
  9
$USERI1
 70
     0
  9
$USERI2
 70
     0
  9
$USERI3
 70
     0
  9
$USERI4
 70
     0
  9
$USERI5
 70
     0
  9
$USERR1
 40
0.0
  9
$USERR2
 40
0.0
  9
$USERR3
 40
0.0
  9
$USERR4
 40
0.0
  9
$USERR5
 40
0.0
  9
$WORLDVIEW
 70
     1
  9
$SHADEDGE
 70
     3
  9
$SHADEDIF
 70
    70
  9
$TILEMODE
 70
     1
  9
$MAXACTVP
 70
    64
  9
$PINSBASE
 10
0.0
 20
0.0
 30
0.0
  9
$PLIMCHECK
 70
     0
  9
$PEXTMIN
 10
1.042221639059562
 20
1.08829855961801
 30
0.0
  9
$PEXTMAX
 10
407.82803226079
 20
284.1844718556203
 30
0.0
  9
$PLIMMIN
 10
-5.873748779296875
 20
-5.873749732971191
  9
$PLIMMAX
 10
414.0729064941406
 20
291.0522451400757
  9
$UNITMODE
 70
     0
  9
$VISRETAIN
 70
     1
  9
$PLINEGEN
 70
     0
  9
$PSLTSCALE
 70
     1
  9
$TREEDEPTH
 70
  3020
  9
$CMLSTYLE
  2
Standard
  9
$CMLJUST
 70
     0
  9
$CMLSCALE
 40
20.0
  9
$PROXYGRAPHICS
 70
     1
  9
$MEASUREMENT
 70
     1
  9
$CELWEIGHT
370
    -1
  9
$ENDCAPS
280
     0
  9
$JOINSTYLE
280
     0
  9
$LWDISPLAY
290
     0
  9
$INSUNITS
 70
     4
  9
$HYPERLINKBASE
  1

  9
$STYLESHEET
  1

  9
$XEDIT
290
     1
  9
$CEPSNTYPE
380
     0
  9
$PSTYLEMODE
290
     1
  9
$FINGERPRINTGUID
  2
{951E45A9-2098-449B-99F4-687C375CF490}
  9
$VERSIONGUID
  2
{1ECD2200-DA82-4673-9102-86BD0A11379C}
  9
$EXTNAMES
290
     1
  9
$PSVPSCALE
 40
0.0
  9
$OLESTARTUP
290
     0
  0
ENDSEC
  0
SECTION
  2
CLASSES
  0
CLASS
  1
ACDBDICTIONARYWDFLT
  2
AcDbDictionaryWithDefault
  3
AutoCAD 2000
 90
        0
280
     0
281
     0
  0
CLASS
  1
ACDBPLACEHOLDER
  2
AcDbPlaceHolder
  3
AutoCAD 2000
 90
        0
280
     0
281
     0
  0
CLASS
  1
LAYOUT
  2
AcDbLayout
  3
AutoCAD 2000
 90
        0
280
     0
281
     0
  0
CLASS
  1
RASTERVARIABLES
  2
AcDbRasterVariables
  3
ISM
 90
        0
280
     0
281
     0
  0
CLASS
  1
DICTIONARYVAR
  2
AcDbDictionaryVar
  3
AutoCAD 2000
 90
        0
280
     0
281
     0
  0
ENDSEC
  0
SECTION
  2
TABLES
  0
TABLE
  2
VPORT
  5
8
330
0
100
AcDbSymbolTable
 70
     4
  0
VPORT
  5
A93A
330
8
100
AcDbSymbolTableRecord
100
AcDbViewportTableRecord
  2
*Active
 70
     0
 10
0.0
 20
0.0
 11
1.0
 21
1.0
 12
258.1387425836135
 22
1023.739189595698
 13
0.0
 23
0.0
 14
10.0
 24
10.0
 15
10.0
 25
10.0
 16
0.0
 26
0.0
 36
1.0
 17
0.0
 27
0.0
 37
0.0
 40
866.3135440723328
 41
1.51042944785276
 42
50.0
 43
0.0
 44
0.0
 50
0.0
 51
0.0
 71
     0
 72
   100
 73
     1
 74
     3
 75
     0
 76
     0
 77
     0
 78
     0
281
     0
 65
     1
110
0.0
120
0.0
130
0.0
111
1.0
121
0.0
131
0.0
112
0.0
122
1.0
132
0.0
 79
     0
146
0.0
  0
ENDTAB
  0
TABLE
  2
LTYPE
  5
5
330
0
100
AcDbSymbolTable
 70
     5
  0
LTYPE
  5
14
330
5
100
AcDbSymbolTableRecord
100
AcDbLinetypeTableRecord
  2
ByBlock
 70
     0
  3

 72
    65
 73
     0
 40
0.0
  0
LTYPE
  5
15
330
5
100
AcDbSymbolTableRecord
100
AcDbLinetypeTableRecord
  2
ByLayer
 70
     0
  3

 72
    65
 73
     0
 40
0.0
  0
LTYPE
  5
16
330
5
100
AcDbSymbolTableRecord
100
AcDbLinetypeTableRecord
  2
Continuous
 70
     0
  3
Solid line
 72
    65
 73
     0
 40
0.0
  0
LTYPE
  5
35
330
5
100
AcDbSymbolTableRecord
100
AcDbLinetypeTableRecord
  2
HIDDEN
 70
     0
  3
Hidden __ __ __ __ __ __ __ __ __ __ __ __ __ _
 72
    65
 73
     2
 40
9.524999999999998
 49
6.349999999999999
 74
     0
 49
-3.174999999999999
 74
     0
  0
LTYPE
  5
36
330
5
100
AcDbSymbolTableRecord
100
AcDbLinetypeTableRecord
  2
HIDDEN2
 70
     0
  3
Hidden (.5x) _ _ _ _ _ _ _ _ _ _ _ _ _ _ _ _ _
 72
    65
 73
     2
 40
4.762499999999999
 49
3.174999999999999
 74
     0
 49
-1.587499999999999
 74
     0
  0
LTYPE
  5
37
330
5
100
AcDbSymbolTableRecord
100
AcDbLinetypeTableRecord
  2
CENTER
 70
     0
  3
Center ____ _ ____ _ ____ _ ____ _ ____ _ ____
 72
    65
 73
     4
 40
50.8
 49
31.75
 74
     0
 49
-6.349999999999999
 74
     0
 49
6.349999999999999
 74
     0
 49
-6.349999999999999
 74
     0
  0
LTYPE
  5
38
330
5
100
AcDbSymbolTableRecord
100
AcDbLinetypeTableRecord
  2
PHANTOM2
 70
     0
  3
Phantom (.5x) ___ _ _ ___ _ _ ___ _ _ ___ _ _
 72
    65
 73
     6
 40
31.75
 49
15.875
 74
     0
 49
-3.174999999999999
 74
     0
 49
3.174999999999999
 74
     0
 49
-3.174999999999999
 74
     0
 49
3.174999999999999
 74
     0
 49
-3.174999999999999
 74
     0
  0
ENDTAB
  0
TABLE
  2
LAYER
  5
2
330
0
100
AcDbSymbolTable
 70
    14
  0
LAYER
  5
10
330
2
100
AcDbSymbolTableRecord
100
AcDbLayerTableRecord
  2
0
 70
     0
 62
     7
  6
Continuous
370
     9
390
F
  0
LAYER
  5
39
330
2
100
AcDbSymbolTableRecord
100
AcDbLayerTableRecord
  2
１
 70
     0
 62
     2
  6
Continuous
370
     9
390
F
  0
LAYER
  5
3A
330
2
100
AcDbSymbolTableRecord
100
AcDbLayerTableRecord
  2
２
 70
     0
 62
     3
  6
Continuous
370
    20
390
F
  0
LAYER
  5
3B
330
2
100
AcDbSymbolTableRecord
100
AcDbLayerTableRecord
  2
３
 70
     0
 62
     4
  6
HIDDEN
370
    15
390
F
  0
LAYER
  5
3C
330
2
100
AcDbSymbolTableRecord
100
AcDbLayerTableRecord
  2
４
 70
     0
 62
     4
  6
HIDDEN2
370
    15
390
F
  0
LAYER
  5
3D
330
2
100
AcDbSymbolTableRecord
100
AcDbLayerTableRecord
  2
５
 70
     0
 62
     6
  6
CENTER
370
    15
390
F
  0
LAYER
  5
3E
330
2
100
AcDbSymbolTableRecord
100
AcDbLayerTableRecord
  2
６
 70
     0
 62
     5
  6
PHANTOM2
370
    15
390
F
  0
LAYER
  5
46
330
2
100
AcDbSymbolTableRecord
100
AcDbLayerTableRecord
  2
Defpoints
 70
     0
 62
     7
  6
Continuous
290
     0
370
    -3
390
F
  0
LAYER
  5
AB
330
2
100
AcDbSymbolTableRecord
100
AcDbLayerTableRecord
  2
Object
 70
     0
 62
     3
  6
Continuous
370
    20
390
F
  0
LAYER
  5
63B4
330
2
100
AcDbSymbolTableRecord
100
AcDbLayerTableRecord
  2
HIDDEN2
 70
     0
 62
     7
  6
HIDDEN2
370
    15
390
F
  0
LAYER
  5
64C8
330
2
100
AcDbSymbolTableRecord
100
AcDbLayerTableRecord
  2
1
 70
     0
 62
     7
  6
Continuous
370
     9
390
F
  0
LAYER
  5
64C9
330
2
100
AcDbSymbolTableRecord
100
AcDbLayerTableRecord
  2
2
 70
     0
 62
     3
  6
Continuous
370
    20
390
F
  0
LAYER
  5
8D06
330
2
100
AcDbSymbolTableRecord
100
AcDbLayerTableRecord
  2
CENTER
 70
     0
 62
     7
  6
CENTER
370
     5
390
F
  0
LAYER
  5
9A18
330
2
100
AcDbSymbolTableRecord
100
AcDbLayerTableRecord
  2
Hidden
 70
     0
 62
     4
  6
HIDDEN
370
    13
390
F
  0
ENDTAB
  0
TABLE
  2
STYLE
  5
3
330
0
100
AcDbSymbolTable
 70
     3
  0
STYLE
  5
11
330
3
100
AcDbSymbolTableRecord
100
AcDbTextStyleTableRecord
  2
Standard
 70
     0
 40
0.0
 41
1.0
 50
0.0
 71
     0
 42
2.5
  3
romans.shx
  4
bigfont.shx
  0
STYLE
  5
34
330
3
100
AcDbSymbolTableRecord
100
AcDbTextStyleTableRecord
  2

 70
     1
 40
0.0
 41
1.0
 50
0.0
 71
     0
 42
2.5
  3
ltypeshp.shx
  4

  0
STYLE
  5
12E
330
3
100
AcDbSymbolTableRecord
100
AcDbTextStyleTableRecord
  2
ｽﾀｲﾙ1
 70
     0
 40
2.5
 41
1.0
 50
0.0
 71
     0
 42
2.5
  3
txt.shx
  4

  0
ENDTAB
  0
TABLE
  2
VIEW
  5
6
330
0
100
AcDbSymbolTable
 70
     0
  0
ENDTAB
  0
TABLE
  2
UCS
  5
7
330
0
100
AcDbSymbolTable
 70
     0
  0
ENDTAB
  0
TABLE
  2
APPID
  5
9
330
0
100
AcDbSymbolTable
 70
     1
  0
APPID
  5
12
330
9
100
AcDbSymbolTableRecord
100
AcDbRegAppTableRecord
  2
ACAD
 70
     0
  0
ENDTAB
  0
TABLE
  2
DIMSTYLE
  5
A
330
0
100
AcDbSymbolTable
 70
     3
100
AcDbDimStyleTable
 71
     1
340
27
  0
DIMSTYLE
105
27
102
{ACAD_REACTORS
330
A4F4
330
A6E5
330
A6F3
330
A76A
330
A789
330
A89D
330
A8B8
102
}
330
A
100
AcDbSymbolTableRecord
100
AcDbDimStyleTableRecord
  2
ISO-25
 70
     0
 41
5.0
 42
2.0
 43
3.75
 44
5.0
 73
     0
 74
     0
 77
     1
 78
     8
140
6.0
141
2.5
143
0.1
147
3.0
171
     3
172
     1
176
     7
177
     7
271
     2
272
     2
274
     3
283
     0
284
     8
340
11
371
     9
372
     9
  0
DIMSTYLE
105
AC
330
A
100
AcDbSymbolTableRecord
100
AcDbDimStyleTableRecord
  2
JIS
 70
     0
 41
2.5
 42
1.0
 43
7.0
 44
1.0
 73
     0
 74
     0
 77
     1
 78
     8
140
2.5
141
0.0
143
0.0394
147
0.0
172
     1
174
     1
175
     1
340
11
  0
DIMSTYLE
105
61DD
330
A
100
AcDbSymbolTableRecord
100
AcDbDimStyleTableRecord
  2
ｺﾋﾟｰ - ISO-25
 70
     0
 41
2.5
 42
0.625
 43
3.75
 44
1.25
 73
     0
 74
     0
 77
     1
 78
     8
140
2.5
141
2.5
143
0.03937007874016
147
0.625
171
     3
172
     1
271
     2
272
     2
274
     3
283
     0
284
     8
340
11
343
61D8
  0
ENDTAB
  0
TABLE
  2
BLOCK_RECORD
  5
1
330
0
100
AcDbSymbolTable
 70
     9
  0
BLOCK_RECORD
  5
1F
330
1
100
AcDbSymbolTableRecord
100
AcDbBlockTableRecord
  2
*Model_Space
340
22
  0
BLOCK_RECORD
  5
1B
330
1
100
AcDbSymbolTableRecord
100
AcDbBlockTableRecord
  2
*Paper_Space
340
1E
  0
BLOCK_RECORD
  5
23
330
1
100
AcDbSymbolTableRecord
100
AcDbBlockTableRecord
  2
*Paper_Space0
340
26
  0
BLOCK_RECORD
  5
61D8
330
1
100
AcDbSymbolTableRecord
100
AcDbBlockTableRecord
  2
_Dot
340
0
  0
BLOCK_RECORD
  5
A4F5
330
1
100
AcDbSymbolTableRecord
100
AcDbBlockTableRecord
  2
*D2
340
0
  0
BLOCK_RECORD
  5
A6E6
330
1
100
AcDbSymbolTableRecord
100
AcDbBlockTableRecord
  2
*D3
340
0
  0
BLOCK_RECORD
  5
A6F4
330
1
100
AcDbSymbolTableRecord
100
AcDbBlockTableRecord
  2
*D4
340
0
  0
BLOCK_RECORD
  5
A76B
330
1
100
AcDbSymbolTableRecord
100
AcDbBlockTableRecord
  2
*D5
340
0
  0
BLOCK_RECORD
  5
A78A
330
1
100
AcDbSymbolTableRecord
100
AcDbBlockTableRecord
  2
*D6
340
0
  0
BLOCK_RECORD
  5
A89E
330
1
100
AcDbSymbolTableRecord
100
AcDbBlockTableRecord
  2
*D7
340
0
  0
BLOCK_RECORD
  5
A8B9
330
1
100
AcDbSymbolTableRecord
100
AcDbBlockTableRecord
  2
*D8
340
0
  0
ENDTAB
  0
ENDSEC
  0
SECTION
  2
BLOCKS
  0
BLOCK
  5
20
330
1F
100
AcDbEntity
  8
0
100
AcDbBlockBegin
  2
*Model_Space
 70
     0
 10
0.0
 20
0.0
 30
0.0
  3
*Model_Space
  1

  0
ENDBLK
  5
21
330
1F
100
AcDbEntity
  8
0
100
AcDbBlockEnd
  0
BLOCK
  5
1C
330
1B
100
AcDbEntity
 67
     1
  8
0
100
AcDbBlockBegin
  2
*Paper_Space
 70
     0
 10
0.0
 20
0.0
 30
0.0
  3
*Paper_Space
  1

  0
ENDBLK
  5
1D
330
1B
100
AcDbEntity
 67
     1
  8
0
100
AcDbBlockEnd
  0
BLOCK
  5
24
330
23
100
AcDbEntity
  8
0
100
AcDbBlockBegin
  2
*Paper_Space0
 70
     0
 10
0.0
 20
0.0
 30
0.0
  3
*Paper_Space0
  1

  0
VIEWPORT
  5
922
330
23
100
AcDbEntity
  8
0
100
AcDbViewport
 10
0.0
 20
0.0
 30
0.0
 40
0.0
 41
0.0
 69
     0
 12
0.0
 22
0.0
 13
0.0
 23
0.0
 14
10.0
 24
10.0
 15
10.0
 25
10.0
 16
0.0
 26
0.0
 36
1.0
 17
0.0
 27
0.0
 37
0.0
 42
50.0
 43
0.0
 44
0.0
 45
0.0
 50
0.0
 51
0.0
 72
   100
 90
    32800
  1

281
     0
 71
     1
 74
     0
110
0.0
120
0.0
130
0.0
111
1.0
121
0.0
131
0.0
112
0.0
122
1.0
132
0.0
 79
     0
146
0.0
  0
VIEWPORT
  5
924
330
23
100
AcDbEntity
  8
0
100
AcDbViewport
 10
0.0
 20
0.0
 30
0.0
 40
0.0
 41
0.0
 69
     0
 12
8199.401833840978
 22
6162.095030619208
 13
0.0
 23
0.0
 14
10.0
 24
10.0
 15
10.0
 25
10.0
 16
0.0
 26
0.0
 36
1.0
 17
0.0
 27
0.0
 37
0.0
 42
50.0
 43
0.0
 44
0.0
 45
12844.48115925182
 50
0.0
 51
0.0
 72
   100
 90
    32864
  1

281
     0
 71
     1
 74
     0
110
0.0
120
0.0
130
0.0
111
1.0
121
0.0
131
0.0
112
0.0
122
1.0
132
0.0
 79
     0
146
0.0
  0
ENDBLK
  5
25
330
23
100
AcDbEntity
  8
0
100
AcDbBlockEnd
  0
BLOCK
  5
61DB
330
61D8
100
AcDbEntity
  8
0
100
AcDbBlockBegin
  2
_Dot
 70
     0
 10
0.0
 20
0.0
 30
0.0
  3
_Dot
  1

  0
LWPOLYLINE
  5
61D9
330
61D8
100
AcDbEntity
  8
0
 62
     0
100
AcDbPolyline
 90
        2
 70
     1
 43
0.5
 10
-0.25
 20
0.0
 42
1.0
 10
0.25
 20
0.0
 42
1.0
  0
LINE
  5
61DA
330
61D8
100
AcDbEntity
  8
0
 62
     0
370
    -2
100
AcDbLine
 10
-0.5
 20
0.0
 30
0.0
 11
-1.0
 21
0.0
 31
0.0
  0
ENDBLK
  5
61DC
330
61D8
100
AcDbEntity
  8
0
100
AcDbBlockEnd
  0
BLOCK
  5
A501
330
A4F5
100
AcDbEntity
  8
0
 48
0.5
100
AcDbBlockBegin
  2
*D2
 70
     1
 10
0.0
 20
0.0
 30
0.0
  3
*D2
  1

  0
LINE
  5
A5F7
330
A4F5
100
AcDbEntity
  8
0
 62
     7
 48
0.5
370
     9
100
AcDbLine
 10
234.3120328371089
 20
920.1914334505522
 30
0.0
 11
234.3120328371089
 21
923.487764477546
 31
0.0
  0
LINE
  5
A5F8
330
A4F5
100
AcDbEntity
  8
0
 62
     7
 48
0.5
370
     9
100
AcDbLine
 10
236.1120328371089
 20
920.1914334505522
 30
0.0
 11
236.1120328371089
 21
923.487764477546
 31
0.0
  0
LINE
  5
A5F9
330
A4F5
100
AcDbEntity
  8
0
 62
     7
 48
0.5
370
     9
100
AcDbLine
 10
229.3120328371089
 20
918.4877644775459
 30
0.0
 11
224.3120328371089
 21
918.4877644775459
 31
0.0
  0
LINE
  5
A5FA
330
A4F5
100
AcDbEntity
  8
0
 62
     7
 48
0.5
370
     9
100
AcDbLine
 10
241.1120328371089
 20
918.4877644775459
 30
0.0
 11
263.8263185513947
 21
918.4877644775459
 31
0.0
  0
LINE
  5
A5FB
330
A4F5
100
AcDbEntity
  8
0
 62
     7
 48
0.5
370
     9
100
AcDbLine
 10
234.3120328371089
 20
918.4877644775459
 30
0.0
 11
236.1120328371089
 21
918.4877644775459
 31
0.0
  0
SOLID
  5
A5FC
330
A4F5
100
AcDbEntity
  8
0
 62
     7
 48
0.5
100
AcDbTrace
 10
229.3120328371089
 20
919.3210978108792
 30
0.0
 11
229.3120328371089
 21
917.6544311442127
 31
0.0
 12
234.3120328371089
 22
918.4877644775459
 32
0.0
 13
234.3120328371089
 23
918.4877644775459
 33
0.0
  0
SOLID
  5
A5FD
330
A4F5
100
AcDbEntity
  8
0
 62
     7
 48
0.5
100
AcDbTrace
 10
241.1120328371089
 20
919.3210978108792
 30
0.0
 11
241.1120328371089
 21
917.6544311442127
 31
0.0
 12
236.1120328371089
 22
918.4877644775459
 32
0.0
 13
236.1120328371089
 23
918.4877644775459
 33
0.0
  0
MTEXT
  5
A5FE
330
A4F5
100
AcDbEntity
  8
0
 62
     0
 48
0.5
100
AcDbMText
 10
254.9691756942518
 20
924.487764477546
 30
0.0
 40
6.0
 41
0.0
 71
     5
 72
     1
  1
1.8
 73
     1
 44
1.0
  0
POINT
  5
A5FF
330
A4F5
100
AcDbEntity
  8
Defpoints
 62
     0
 48
0.5
100
AcDbPoint
 10
234.3120328371089
 20
918.1914334505522
 30
0.0
  0
POINT
  5
A600
330
A4F5
100
AcDbEntity
  8
Defpoints
 62
     0
 48
0.5
100
AcDbPoint
 10
236.1120328371089
 20
918.1914334505522
 30
0.0
  0
POINT
  5
A601
330
A4F5
100
AcDbEntity
  8
Defpoints
 62
     0
 48
0.5
100
AcDbPoint
 10
236.1120328371089
 20
918.4877644775459
 30
0.0
  0
ENDBLK
  5
A502
330
A4F5
100
AcDbEntity
  8
0
 48
0.5
100
AcDbBlockEnd
  0
BLOCK
  5
A6F0
330
A6E6
100
AcDbEntity
  8
0
 48
0.5
100
AcDbBlockBegin
  2
*D3
 70
     1
 10
0.0
 20
0.0
 30
0.0
  3
*D3
  1

  0
LINE
  5
A707
330
A6E6
100
AcDbEntity
  8
0
 62
     7
 48
0.5
370
     9
100
AcDbLine
 10
368.1540362693808
 20
1191.540751266739
 30
0.0
 11
365.1540362693808
 21
1191.540751266739
 31
0.0
  0
LINE
  5
A708
330
A6E6
100
AcDbEntity
  8
0
 62
     7
 48
0.5
370
     9
100
AcDbLine
 10
368.1540362693808
 20
1289.460423284187
 30
0.0
 11
365.1540362693808
 21
1289.460423284187
 31
0.0
  0
LINE
  5
A709
330
A6E6
100
AcDbEntity
  8
0
 62
     7
 48
0.5
370
     9
100
AcDbLine
 10
370.1540362693808
 20
1196.540751266739
 30
0.0
 11
370.1540362693808
 21
1284.460423284187
 31
0.0
  0
SOLID
  5
A70A
330
A6E6
100
AcDbEntity
  8
0
 62
     7
 48
0.5
100
AcDbTrace
 10
369.3207029360475
 20
1196.540751266739
 30
0.0
 11
370.9873696027141
 21
1196.540751266739
 31
0.0
 12
370.1540362693808
 22
1191.540751266739
 32
0.0
 13
370.1540362693808
 23
1191.540751266739
 33
0.0
  0
SOLID
  5
A70B
330
A6E6
100
AcDbEntity
  8
0
 62
     7
 48
0.5
100
AcDbTrace
 10
369.3207029360475
 20
1284.460423284187
 30
0.0
 11
370.9873696027141
 21
1284.460423284187
 31
0.0
 12
370.1540362693808
 22
1289.460423284187
 32
0.0
 13
370.1540362693808
 23
1289.460423284187
 33
0.0
  0
MTEXT
  5
A70C
330
A6E6
100
AcDbEntity
  8
0
 62
     0
 48
0.5
100
AcDbMText
 10
364.1540362693806
 20
1240.500587275463
 30
0.0
 40
6.0
 41
0.0
 71
     5
 72
     1
  1
100
 11
0.0000000000000001
 21
1.0
 31
0.0
 73
     1
 44
1.0
  0
POINT
  5
A70D
330
A6E6
100
AcDbEntity
  8
Defpoints
 62
     0
 48
0.5
100
AcDbPoint
 10
370.1540362693808
 20
1191.540751266739
 30
0.0
  0
POINT
  5
A70E
330
A6E6
100
AcDbEntity
  8
Defpoints
 62
     0
 48
0.5
100
AcDbPoint
 10
370.1540362693808
 20
1289.460423284187
 30
0.0
  0
POINT
  5
A70F
330
A6E6
100
AcDbEntity
  8
Defpoints
 62
     0
 48
0.5
100
AcDbPoint
 10
370.1540362693808
 20
1289.460423284187
 30
0.0
  0
ENDBLK
  5
A6F1
330
A6E6
100
AcDbEntity
  8
0
 48
0.5
100
AcDbBlockEnd
  0
BLOCK
  5
A6FE
330
A6F4
100
AcDbEntity
  8
0
 48
0.5
100
AcDbBlockBegin
  2
*D4
 70
     1
 10
0.0
 20
0.0
 30
0.0
  3
*D4
  1

  0
LINE
  5
A8FE
330
A6F4
100
AcDbEntity
  8
0
 62
     7
 48
0.5
370
     9
100
AcDbLine
 10
341.2229684882545
 20
1191.540751266739
 30
0.0
 11
357.3802119991178
 21
1191.540751266739
 31
0.0
  0
LINE
  5
A8FF
330
A6F4
100
AcDbEntity
  8
0
 62
     7
 48
0.5
370
     9
100
AcDbLine
 10
341.2229684882545
 20
1245.981771115612
 30
0.0
 11
357.3802119991178
 21
1245.981771115612
 31
0.0
  0
LINE
  5
A900
330
A6F4
100
AcDbEntity
  8
0
 62
     7
 48
0.5
370
     9
100
AcDbLine
 10
352.3802119991178
 20
1196.540751266739
 30
0.0
 11
352.3802119991178
 21
1240.981771115612
 31
0.0
  0
SOLID
  5
A901
330
A6F4
100
AcDbEntity
  8
0
 62
     7
 48
0.5
100
AcDbTrace
 10
351.5468786657844
 20
1196.540751266739
 30
0.0
 11
353.2135453324511
 21
1196.540751266739
 31
0.0
 12
352.3802119991178
 22
1191.540751266739
 32
0.0
 13
352.3802119991178
 23
1191.540751266739
 33
0.0
  0
SOLID
  5
A902
330
A6F4
100
AcDbEntity
  8
0
 62
     7
 48
0.5
100
AcDbTrace
 10
351.5468786657844
 20
1240.981771115612
 30
0.0
 11
353.2135453324511
 21
1240.981771115612
 31
0.0
 12
352.3802119991178
 22
1245.981771115612
 32
0.0
 13
352.3802119991178
 23
1245.981771115612
 33
0.0
  0
MTEXT
  5
A903
330
A6F4
100
AcDbEntity
  8
0
 62
     0
 48
0.5
100
AcDbMText
 10
346.3802119991175
 20
1218.761261191176
 30
0.0
 40
6.0
 41
0.0
 71
     5
 72
     1
  1
58
 11
0.0000000000000001
 21
1.0
 31
0.0
 73
     1
 44
1.0
  0
POINT
  5
A904
330
A6F4
100
AcDbEntity
  8
Defpoints
 62
     0
 48
0.5
100
AcDbPoint
 10
339.2229684882545
 20
1191.540751266739
 30
0.0
  0
POINT
  5
A905
330
A6F4
100
AcDbEntity
  8
Defpoints
 62
     0
 48
0.5
100
AcDbPoint
 10
339.2229684882545
 20
1245.981771115612
 30
0.0
  0
POINT
  5
A906
330
A6F4
100
AcDbEntity
  8
Defpoints
 62
     0
 48
0.5
100
AcDbPoint
 10
352.3802119991178
 20
1245.981771115612
 30
0.0
  0
ENDBLK
  5
A6FF
330
A6F4
100
AcDbEntity
  8
0
 48
0.5
100
AcDbBlockEnd
  0
BLOCK
  5
A777
330
A76B
100
AcDbEntity
  8
0
 48
0.5
100
AcDbBlockBegin
  2
*D5
 70
     1
 10
0.0
 20
0.0
 30
0.0
  3
*D5
  1

  0
LINE
  5
A76C
330
A76B
100
AcDbEntity
  8
0
 62
     7
 48
0.5
370
     9
100
AcDbLine
 10
186.3120328371089
 20
997.8083133035157
 30
0.0
 11
171.5551613278043
 21
997.8083133035157
 31
0.0
  0
LINE
  5
A76D
330
A76B
100
AcDbEntity
  8
0
 62
     7
 48
0.5
370
     9
100
AcDbLine
 10
186.3120328371089
 20
995.8051863904998
 30
0.0
 11
171.5551613278043
 21
995.8051863904998
 31
0.0
  0
LINE
  5
A76E
330
A76B
100
AcDbEntity
  8
0
 62
     7
 48
0.5
370
     9
100
AcDbLine
 10
176.5551613278043
 20
1002.808313303515
 30
0.0
 11
176.5551613278043
 21
1007.808313303515
 31
0.0
  0
LINE
  5
A76F
330
A76B
100
AcDbEntity
  8
0
 62
     7
 48
0.5
370
     9
100
AcDbLine
 10
176.5551613278043
 20
990.8051863904999
 30
0.0
 11
176.5551613278043
 21
975.8051863904999
 31
0.0
  0
LINE
  5
A770
330
A76B
100
AcDbEntity
  8
0
 62
     7
 48
0.5
370
     9
100
AcDbLine
 10
176.5551613278043
 20
997.8083133035157
 30
0.0
 11
176.5551613278043
 21
995.8051863904998
 31
0.0
  0
SOLID
  5
A771
330
A76B
100
AcDbEntity
  8
0
 62
     7
 48
0.5
100
AcDbTrace
 10
175.721827994471
 20
1002.808313303515
 30
0.0
 11
177.3884946611377
 21
1002.808313303515
 31
0.0
 12
176.5551613278043
 22
997.8083133035157
 32
0.0
 13
176.5551613278043
 23
997.8083133035157
 33
0.0
  0
SOLID
  5
A772
330
A76B
100
AcDbEntity
  8
0
 62
     7
 48
0.5
100
AcDbTrace
 10
175.721827994471
 20
990.8051863904999
 30
0.0
 11
177.3884946611377
 21
990.8051863904999
 31
0.0
 12
176.5551613278043
 22
995.8051863904998
 32
0.0
 13
176.5551613278043
 23
995.8051863904998
 33
0.0
  0
MTEXT
  5
A773
330
A76B
100
AcDbEntity
  8
0
 62
     0
 48
0.5
100
AcDbMText
 10
170.5551613278042
 20
980.8051863904999
 30
0.0
 40
6.0
 41
0.0
 71
     5
 72
     1
  1
2
 11
0.0000000000000001
 21
1.0
 31
0.0
 73
     1
 44
1.0
  0
POINT
  5
A774
330
A76B
100
AcDbEntity
  8
Defpoints
 62
     0
 48
0.5
100
AcDbPoint
 10
188.3120328371089
 20
997.8083133035157
 30
0.0
  0
POINT
  5
A775
330
A76B
100
AcDbEntity
  8
Defpoints
 62
     0
 48
0.5
100
AcDbPoint
 10
188.3120328371089
 20
995.8051863904998
 30
0.0
  0
POINT
  5
A776
330
A76B
100
AcDbEntity
  8
Defpoints
 62
     0
 48
0.5
100
AcDbPoint
 10
176.5551613278043
 20
995.8051863904998
 30
0.0
  0
ENDBLK
  5
A778
330
A76B
100
AcDbEntity
  8
0
 48
0.5
100
AcDbBlockEnd
  0
BLOCK
  5
A794
330
A78A
100
AcDbEntity
  8
0
 48
0.5
100
AcDbBlockBegin
  2
*D6
 70
     1
 10
0.0
 20
0.0
 30
0.0
  3
*D6
  1

  0
LINE
  5
A796
330
A78A
100
AcDbEntity
  8
0
 62
     7
 48
0.5
370
     9
100
AcDbLine
 10
310.8744401295428
 20
930.7923800528225
 30
0.0
 11
310.8744401295428
 21
917.2760040299809
 31
0.0
  0
LINE
  5
A797
330
A78A
100
AcDbEntity
  8
0
 62
     7
 48
0.5
370
     9
100
AcDbLine
 10
335.8744401295428
 20
930.7923800528225
 30
0.0
 11
335.8744401295428
 21
917.2760040299809
 31
0.0
  0
LINE
  5
A798
330
A78A
100
AcDbEntity
  8
0
 62
     7
 48
0.5
370
     9
100
AcDbLine
 10
315.8744401295427
 20
922.276004029981
 30
0.0
 11
330.8744401295427
 21
922.276004029981
 31
0.0
  0
LINE
  5
A799
330
A78A
100
AcDbEntity
  8
0
 62
     7
 48
0.5
370
     9
100
AcDbLine
 10
335.8744401295428
 20
922.276004029981
 30
0.0
 11
357.7782752203408
 21
922.276004029981
 31
0.0
  0
SOLID
  5
A79A
330
A78A
100
AcDbEntity
  8
0
 62
     7
 48
0.5
100
AcDbTrace
 10
315.8744401295427
 20
923.1093373633143
 30
0.0
 11
315.8744401295427
 21
921.4426706966476
 31
0.0
 12
310.8744401295428
 22
922.276004029981
 32
0.0
 13
310.8744401295428
 23
922.276004029981
 33
0.0
  0
SOLID
  5
A79B
330
A78A
100
AcDbEntity
  8
0
 62
     7
 48
0.5
100
AcDbTrace
 10
330.8744401295427
 20
923.1093373633143
 30
0.0
 11
330.8744401295427
 21
921.4426706966476
 31
0.0
 12
335.8744401295428
 22
922.276004029981
 32
0.0
 13
335.8744401295428
 23
922.276004029981
 33
0.0
  0
MTEXT
  5
A79C
330
A78A
100
AcDbEntity
  8
0
 62
     0
 48
0.5
100
AcDbMText
 10
349.921132363198
 20
928.2760040299809
 30
0.0
 40
6.0
 41
0.0
 71
     5
 72
     1
  1
25
 73
     1
 44
1.0
  0
POINT
  5
A79D
330
A78A
100
AcDbEntity
  8
Defpoints
 62
     0
 48
0.5
100
AcDbPoint
 10
310.8744401295428
 20
932.7923800528225
 30
0.0
  0
POINT
  5
A79E
330
A78A
100
AcDbEntity
  8
Defpoints
 62
     0
 48
0.5
100
AcDbPoint
 10
335.8744401295428
 20
932.7923800528225
 30
0.0
  0
POINT
  5
A79F
330
A78A
100
AcDbEntity
  8
Defpoints
 62
     0
 48
0.5
100
AcDbPoint
 10
335.8744401295428
 20
922.276004029981
 30
0.0
  0
ENDBLK
  5
A795
330
A78A
100
AcDbEntity
  8
0
 48
0.5
100
AcDbBlockEnd
  0
BLOCK
  5
A8AA
330
A89E
100
AcDbEntity
  8
0
 48
0.5
100
AcDbBlockBegin
  2
*D7
 70
     1
 10
0.0
 20
0.0
 30
0.0
  3
*D7
  1

  0
LINE
  5
A8AD
330
A89E
100
AcDbEntity
  8
0
 62
     7
 48
0.5
370
     9
100
AcDbLine
 10
191.8120328371089
 20
1034.673161620019
 30
0.0
 11
191.8120328371089
 21
1027.560650792393
 31
0.0
  0
LINE
  5
A8AE
330
A89E
100
AcDbEntity
  8
0
 62
     7
 48
0.5
370
     9
100
AcDbLine
 10
199.8120328371089
 20
1034.673161620019
 30
0.0
 11
199.8120328371089
 21
1027.560650792393
 31
0.0
  0
LINE
  5
A8AF
330
A89E
100
AcDbEntity
  8
0
 62
     7
 48
0.5
370
     9
100
AcDbLine
 10
186.8120328371089
 20
1032.560650792393
 30
0.0
 11
181.8120328371089
 21
1032.560650792393
 31
0.0
  0
LINE
  5
A8B0
330
A89E
100
AcDbEntity
  8
0
 62
     7
 48
0.5
370
     9
100
AcDbLine
 10
204.8120328371089
 20
1032.560650792393
 30
0.0
 11
225.2406042656803
 21
1032.560650792393
 31
0.0
  0
LINE
  5
A8B1
330
A89E
100
AcDbEntity
  8
0
 62
     7
 48
0.5
370
     9
100
AcDbLine
 10
191.8120328371089
 20
1032.560650792393
 30
0.0
 11
199.8120328371089
 21
1032.560650792393
 31
0.0
  0
SOLID
  5
A8B2
330
A89E
100
AcDbEntity
  8
0
 62
     7
 48
0.5
100
AcDbTrace
 10
186.8120328371089
 20
1033.393984125726
 30
0.0
 11
186.8120328371089
 21
1031.72731745906
 31
0.0
 12
191.8120328371089
 22
1032.560650792393
 32
0.0
 13
191.8120328371089
 23
1032.560650792393
 33
0.0
  0
SOLID
  5
A8B3
330
A89E
100
AcDbEntity
  8
0
 62
     7
 48
0.5
100
AcDbTrace
 10
204.8120328371089
 20
1033.393984125726
 30
0.0
 11
204.8120328371089
 21
1031.72731745906
 31
0.0
 12
199.8120328371089
 22
1032.560650792393
 32
0.0
 13
199.8120328371089
 23
1032.560650792393
 33
0.0
  0
MTEXT
  5
A8B4
330
A89E
100
AcDbEntity
  8
0
 62
     0
 48
0.5
100
AcDbMText
 10
217.5263185513946
 20
1038.560650792393
 30
0.0
 40
6.0
 41
0.0
 71
     5
 72
     1
  1
%%c8
 73
     1
 44
1.0
  0
POINT
  5
A8B5
330
A89E
100
AcDbEntity
  8
Defpoints
 62
     0
 48
0.5
100
AcDbPoint
 10
191.8120328371089
 20
1036.673161620019
 30
0.0
  0
POINT
  5
A8B6
330
A89E
100
AcDbEntity
  8
Defpoints
 62
     0
 48
0.5
100
AcDbPoint
 10
199.8120328371089
 20
1036.673161620019
 30
0.0
  0
POINT
  5
A8B7
330
A89E
100
AcDbEntity
  8
Defpoints
 62
     0
 48
0.5
100
AcDbPoint
 10
199.8120328371089
 20
1032.560650792393
 30
0.0
  0
ENDBLK
  5
A8AB
330
A89E
100
AcDbEntity
  8
0
 48
0.5
100
AcDbBlockEnd
  0
BLOCK
  5
A8C3
330
A8B9
100
AcDbEntity
  8
0
 48
0.5
100
AcDbBlockBegin
  2
*D8
 70
     1
 10
0.0
 20
0.0
 30
0.0
  3
*D8
  1

  0
LINE
  5
A8C5
330
A8B9
100
AcDbEntity
  8
0
 62
     7
 48
0.5
370
     9
100
AcDbLine
 10
193.8120328371089
 20
1052.688243525059
 30
0.0
 11
171.5551613278043
 21
1052.688243525059
 31
0.0
  0
LINE
  5
A8C6
330
A8B9
100
AcDbEntity
  8
0
 62
     7
 48
0.5
370
     9
100
AcDbLine
 10
193.8120328371089
 20
997.8083133035157
 30
0.0
 11
171.5551613278043
 21
997.8083133035157
 31
0.0
  0
LINE
  5
A8C7
330
A8B9
100
AcDbEntity
  8
0
 62
     7
 48
0.5
370
     9
100
AcDbLine
 10
176.5551613278043
 20
1047.688243525059
 30
0.0
 11
176.5551613278043
 21
1002.808313303515
 31
0.0
  0
SOLID
  5
A8C8
330
A8B9
100
AcDbEntity
  8
0
 62
     7
 48
0.5
100
AcDbTrace
 10
175.721827994471
 20
1047.688243525059
 30
0.0
 11
177.3884946611377
 21
1047.688243525059
 31
0.0
 12
176.5551613278043
 22
1052.688243525059
 32
0.0
 13
176.5551613278043
 23
1052.688243525059
 33
0.0
  0
SOLID
  5
A8C9
330
A8B9
100
AcDbEntity
  8
0
 62
     7
 48
0.5
100
AcDbTrace
 10
175.721827994471
 20
1002.808313303515
 30
0.0
 11
177.3884946611377
 21
1002.808313303515
 31
0.0
 12
176.5551613278043
 22
997.8083133035157
 32
0.0
 13
176.5551613278043
 23
997.8083133035157
 33
0.0
  0
MTEXT
  5
A8CA
330
A8B9
100
AcDbEntity
  8
0
 62
     0
 48
0.5
100
AcDbMText
 10
170.5551613278042
 20
1025.248278414287
 30
0.0
 40
6.0
 41
0.0
 71
     5
 72
     1
  1
55
 11
0.0000000000000001
 21
1.0
 31
0.0
 73
     1
 44
1.0
  0
POINT
  5
A8CB
330
A8B9
100
AcDbEntity
  8
Defpoints
 62
     0
 48
0.5
100
AcDbPoint
 10
195.8120328371089
 20
1052.688243525059
 30
0.0
  0
POINT
  5
A8CC
330
A8B9
100
AcDbEntity
  8
Defpoints
 62
     0
 48
0.5
100
AcDbPoint
 10
195.8120328371089
 20
997.8083133035157
 30
0.0
  0
POINT
  5
A8CD
330
A8B9
100
AcDbEntity
  8
Defpoints
 62
     0
 48
0.5
100
AcDbPoint
 10
176.5551613278043
 20
997.8083133035157
 30
0.0
  0
ENDBLK
  5
A8C4
330
A8B9
100
AcDbEntity
  8
0
 48
0.5
100
AcDbBlockEnd
  0
ENDSEC
  0
SECTION
  2
ENTITIES
  0
LINE
  5
60DA
330
1F
100
AcDbEntity
  8
２
 62
     0
370
    20
100
AcDbLine
 10
-113.6069841392893
 20
817.5308658634676
 30
0.0
 11
682.3930158607106
 21
817.5308658634676
 31
0.0
  0
LINE
  5
60DB
330
1F
100
AcDbEntity
  8
２
 62
     0
 48
25.0
100
AcDbLine
 10
-113.6069841392893
 20
837.5308658634676
 30
0.0
 11
682.3930158607106
 21
837.5308658634676
 31
0.0
  0
LINE
  5
60DC
330
1F
100
AcDbEntity
  8
２
 62
     0
 48
25.0
100
AcDbLine
 10
-113.6069841392893
 20
837.5308658634676
 30
0.0
 11
682.3930158607106
 21
837.5308658634676
 31
0.0
  0
LINE
  5
60DD
330
1F
100
AcDbEntity
  8
0
 62
     0
 48
25.0
100
AcDbLine
 10
279.1215549150597
 20
837.5308658634676
 30
0.0
 11
318.4215549150597
 21
837.5308658634676
 31
0.0
  0
LINE
  5
60DE
330
1F
100
AcDbEntity
  8
２
 62
     0
370
    20
100
AcDbLine
 10
682.3930158607106
 20
817.5308658634676
 30
0.0
 11
-67.60698413928935
 21
817.5308658634678
 31
0.0
  0
LINE
  5
60DF
330
1F
100
AcDbEntity
  8
１
 62
     0
 48
25.0
100
AcDbLine
 10
-103.8208647361605
 20
827.5308658634676
 30
0.0
 11
173.6637676806376
 21
827.5308658634671
 31
0.0
  0
LINE
  5
60E0
330
1F
100
AcDbEntity
  8
１
 62
     0
 48
25.0
100
AcDbLine
 10
173.6637676806376
 20
822.5308658634673
 30
0.0
 11
-103.8208647361605
 21
822.5308658634672
 31
0.0
  0
LINE
  5
60E1
330
1F
100
AcDbEntity
  8
１
 62
     0
 48
25.0
100
AcDbLine
 10
173.6637676806376
 20
832.5308658634677
 30
0.0
 11
-103.8208647361605
 21
832.5308658634677
 31
0.0
  0
LINE
  5
60E2
330
1F
100
AcDbEntity
  8
0
 62
     0
100
AcDbLine
 10
-67.60698413928935
 20
817.5308658634676
 30
0.0
 11
-113.6069841392893
 21
817.5308658634676
 31
0.0
  0
LINE
  5
60E3
330
1F
100
AcDbEntity
  8
２
 62
     0
 48
25.0
100
AcDbLine
 10
-107.8208647361605
 20
837.5308658634676
 30
0.0
 11
-107.8208647361605
 21
817.5308658634676
 31
0.0
  0
LINE
  5
60E4
330
1F
100
AcDbEntity
  8
２
 62
     0
 48
25.0
100
AcDbLine
 10
-113.6069841392893
 20
817.5308658634676
 30
0.0
 11
-117.6069841392893
 21
817.5308658634676
 31
0.0
  0
LINE
  5
60E5
330
1F
100
AcDbEntity
  8
２
 62
     0
 48
25.0
100
AcDbLine
 10
-117.6069841392893
 20
817.6093089910487
 30
0.0
 11
-117.6069841392893
 21
817.5308658634676
 31
0.0
  0
LINE
  5
60E6
330
1F
100
AcDbEntity
  8
0
 62
     0
 48
25.0
100
AcDbLine
 10
-113.6069841392893
 20
837.5308658634676
 30
0.0
 11
-107.8208647361605
 21
837.5308658634676
 31
0.0
  0
MTEXT
  5
60E7
330
1F
100
AcDbEntity
  8
２
 62
     0
 48
25.0
100
AcDbMText
 10
-112.2139241392893
 20
827.5308658634678
 30
0.0
 40
4.5
 41
9.78612
 71
     5
 72
     5
  1
記\P事
 73
     1
 44
1.0
  0
LINE
  5
60E8
330
1F
100
AcDbEntity
  8
２
 62
     0
 48
25.0
100
AcDbLine
 10
-113.6069841392893
 20
837.5308658634676
 30
0.0
 11
-117.6069841392893
 21
837.5308658634676
 31
0.0
  0
LINE
  5
60E9
330
1F
100
AcDbEntity
  8
１
 62
     0
 48
25.0
100
AcDbLine
 10
-103.8208647361605
 20
822.5308658634672
 30
0.0
 11
-107.8208647361605
 21
822.5308658634672
 31
0.0
  0
LINE
  5
60EA
330
1F
100
AcDbEntity
  8
１
 62
     0
 48
25.0
100
AcDbLine
 10
-103.8208647361605
 20
827.5308658634676
 30
0.0
 11
-107.8208647361605
 21
827.5308658634676
 31
0.0
  0
LINE
  5
60EB
330
1F
100
AcDbEntity
  8
１
 62
     0
 48
25.0
100
AcDbLine
 10
-103.8208647361605
 20
832.5308658634677
 30
0.0
 11
-107.8208647361605
 21
832.5308658634677
 31
0.0
  0
LINE
  5
60EC
330
1F
100
AcDbEntity
  8
２
 62
     0
 48
25.0
100
AcDbLine
 10
173.6637676806376
 20
837.5308658634676
 30
0.0
 11
279.1215549150597
 21
837.5308658634676
 31
0.0
  0
LINE
  5
60ED
330
1F
100
AcDbEntity
  8
１
 62
     0
 48
25.0
100
AcDbLine
 10
173.6637676806376
 20
827.5308658634676
 30
0.0
 11
279.1215549150597
 21
827.5308658634676
 31
0.0
  0
MTEXT
  5
60EE
330
1F
100
AcDbEntity
  8
２
 62
     0
 48
25.0
100
AcDbMText
 10
193.3117526806377
 20
822.5308658634677
 30
0.0
 40
6.0
 41
39.296
 71
     5
 72
     5
  1
作図者
 73
     1
 44
1.0
  0
MTEXT
  5
60EF
330
1F
100
AcDbEntity
  8
２
 62
     0
 48
25.0
100
AcDbMText
 10
194.0347626806376
 20
832.5308658634677
 30
0.0
 40
6.0
 41
40.742
 71
     5
 72
     5
  1
作図日
 73
     1
 44
1.0
  0
LINE
  5
60F0
330
1F
100
AcDbEntity
  8
２
 62
     0
 48
25.0
100
AcDbLine
 10
173.6637676806376
 20
827.5308658634671
 30
0.0
 11
173.6637676806376
 21
817.5308658634676
 31
0.0
  0
LINE
  5
60F1
330
1F
100
AcDbEntity
  8
２
 62
     0
 48
25.0
100
AcDbLine
 10
173.6637676806376
 20
837.5308658634676
 30
0.0
 11
173.6637676806376
 21
817.5308658634676
 31
0.0
  0
LINE
  5
60F2
330
1F
100
AcDbEntity
  8
0
 62
     0
 48
25.0
100
AcDbLine
 10
173.6637676806376
 20
837.5308658634676
 30
0.0
 11
173.6637676806376
 21
827.5308658634676
 31
0.0
  0
LINE
  5
60F3
330
1F
100
AcDbEntity
  8
２
 62
     0
 48
25.0
100
AcDbLine
 10
212.9597354275438
 20
837.5308658634676
 30
0.0
 11
212.9597354275438
 21
817.5308658634676
 31
0.0
  0
MTEXT
  5
60F5
330
1F
100
AcDbEntity
  8
２
 62
     0
 48
25.0
100
AcDbMText
 10
246.0406454275439
 20
822.5308658634677
 30
0.0
 40
3.5
 41
66.16182000000001
 71
     5
 72
     5
  1
E.Nomura
 73
     1
 44
1.0
  0
LINE
  5
60F6
330
1F
100
AcDbEntity
  8
２
 62
     0
 48
25.0
100
AcDbLine
 10
279.1215549150597
 20
837.5308658634677
 30
0.0
 11
279.1215549150597
 21
817.5308658634678
 31
0.0
  0
LINE
  5
60F7
330
1F
100
AcDbEntity
  8
１
 62
     0
 48
25.0
100
AcDbLine
 10
318.4215549150597
 20
827.5308658634676
 30
0.0
 11
528.649591227999
 21
827.5308658634676
 31
0.0
  0
LINE
  5
60F8
330
1F
100
AcDbEntity
  8
0
 62
     0
 48
25.0
100
AcDbLine
 10
341.3965544355929
 20
837.5308658634676
 30
0.0
 11
460.2880544355928
 21
837.5308658634676
 31
0.0
  0
MTEXT
  5
60F9
330
1F
100
AcDbEntity
  8
２
 62
     0
 48
25.0
100
AcDbMText
 10
338.0715549150596
 20
822.5308658634677
 30
0.0
 40
6.0
 41
39.29999999999999
 71
     5
 72
     5
  1
図　　名
 73
     1
 44
1.0
  0
MTEXT
  5
60FA
330
1F
100
AcDbEntity
  8
２
 62
     0
 48
25.0
100
AcDbMText
 10
338.0715549150596
 20
832.5308658634677
 30
0.0
 40
6.0
 41
39.29999999999999
 71
     5
 72
     5
  1
物件名称
 73
     1
 44
1.0
  0
LINE
  5
60FB
330
1F
100
AcDbEntity
  8
0
 62
     0
 48
25.0
100
AcDbLine
 10
318.4215549150597
 20
837.5308658634676
 30
0.0
 11
357.7215549150596
 21
837.5308658634676
 31
0.0
  0
MTEXT
  5
60FC
330
1F
100
AcDbEntity
  8
２
 62
     0
 48
25.0
100
AcDbMText
 10
298.2565124150596
 20
827.5308658634678
 30
0.0
 40
4.5
 41
32.06989999999999
 71
     5
 72
     5
  1
Ｓ＝1/2
 73
     1
 44
1.0
  0
LINE
  5
60FD
330
1F
100
AcDbEntity
  8
２
 62
     0
 48
25.0
100
AcDbLine
 10
318.4215549150597
 20
837.5308658634676
 30
0.0
 11
318.4215549150597
 21
817.5308658634676
 31
0.0
  0
LINE
  5
60FE
330
1F
100
AcDbEntity
  8
0
 62
     0
 48
25.0
100
AcDbLine
 10
318.4215549150597
 20
837.5308658634676
 30
0.0
 11
318.4215549150597
 21
817.5308658634676
 31
0.0
  0
LINE
  5
60FF
330
1F
100
AcDbEntity
  8
２
 62
     0
 48
25.0
100
AcDbLine
 10
357.7215549150596
 20
837.5308658634676
 30
0.0
 11
357.7215549150596
 21
817.5308658634676
 31
0.0
  0
LINE
  5
6100
330
1F
100
AcDbEntity
  8
２
 62
     0
 48
25.0
100
AcDbLine
 10
528.649591227999
 20
837.5308658634676
 30
0.0
 11
528.649591227999
 21
817.5308658634676
 31
0.0
  0
MTEXT
  5
6101
330
1F
100
AcDbEntity
  8
２
 62
     0
 48
25.0
100
AcDbMText
 10
626.0641145896142
 20
827.5308658634678
 30
0.0
 40
6.0
 41
103.21335
 71
     5
 72
     5
  1
株式会社{\H1.25x; アルティマ}
 73
     1
 44
1.0
  0
ARC
  5
6102
330
1F
100
AcDbEntity
  8
Object
 62
     0
 48
0.3
100
AcDbCircle
 10
568.3681132541858
 20
824.3086653690383
 30
0.0
 40
4.049999999999999
100
AcDbArc
 50
180.0
 51
257.3448222610501
  0
LINE
  5
6103
102
{ACAD_REACTORS
330
6105
102
}
330
1F
100
AcDbEntity
  8
Object
 62
     0
 48
0.3
100
AcDbLine
 10
546.6185729416677
 20
834.8220867758399
 30
0.0
 11
549.3185729416677
 21
834.8220867758399
 31
0.0
  0
ARC
  5
6104
102
{ACAD_REACTORS
330
6105
102
}
330
1F
100
AcDbEntity
  8
Object
 62
     0
 48
0.3
100
AcDbCircle
 10
545.2685729416677
 20
824.29208677584
 30
0.0
 40
4.049999999999999
100
AcDbArc
 50
180.0
 51
0.0
  0
HATCH
  5
6105
330
1F
100
AcDbEntity
  8
Object
 62
     0
 48
0.3
100
AcDbHatch
 10
0.0
 20
0.0
 30
0.0
210
0.0
220
0.0
230
1.0
  2
ANSI31
 70
     0
 71
     1
 91
        1
 92
        1
 93
        8
 72
     1
 10
543.9185729416676
 20
834.8220867758399
 11
541.2185729416676
 21
834.8220867758399
 72
     1
 10
541.2185729416676
 20
834.8220867758399
 11
541.2185729416676
 21
824.29208677584
 72
     2
 10
545.2685729416677
 20
824.29208677584
 40
4.049999999999999
 50
180.0
 51
360.0
 73
     1
 72
     1
 10
549.3185729416677
 20
824.29208677584
 11
549.3185729416677
 21
834.8220867758399
 72
     1
 10
549.3185729416677
 20
834.8220867758399
 11
546.6185729416677
 21
834.8220867758399
 72
     1
 10
546.6185729416677
 20
834.8220867758399
 11
546.6185729416677
 21
824.29208677584
 72
     2
 10
545.2685729416677
 20
824.29208677584
 40
1.35
 50
360.0
 51
540.0
 73
     0
 72
     1
 10
543.9185729416676
 20
824.29208677584
 11
543.9185729416676
 21
834.8220867758399
 97
        8
330
610B
330
6106
330
6104
330
610D
330
6103
330
6108
330
6109
330
6107
 75
     0
 76
     1
 52
0.0
 41
0.01125
 77
     0
 78
     1
 53
45.0
 43
388.6807673218097
 44
717.6334720785245
 45
-0.025256970340507
 46
0.025256970340507
 79
     0
 98
        1
 10
388.6807673218097
 20
717.6334720785245
  0
LINE
  5
6106
102
{ACAD_REACTORS
330
6105
102
}
330
1F
100
AcDbEntity
  8
Object
 62
     0
 48
0.3
100
AcDbLine
 10
541.2185729416676
 20
824.29208677584
 30
0.0
 11
541.2185729416676
 21
834.8220867758399
 31
0.0
  0
LINE
  5
6107
102
{ACAD_REACTORS
330
6105
102
}
330
1F
100
AcDbEntity
  8
Object
 62
     0
 48
0.3
100
AcDbLine
 10
543.9185729416676
 20
834.8220867758399
 30
0.0
 11
543.9185729416676
 21
824.29208677584
 31
0.0
  0
LINE
  5
6108
102
{ACAD_REACTORS
330
6105
102
}
330
1F
100
AcDbEntity
  8
Object
 62
     0
 48
0.3
100
AcDbLine
 10
546.6185729416677
 20
834.8220867758399
 30
0.0
 11
546.6185729416677
 21
824.29208677584
 31
0.0
  0
ARC
  5
6109
102
{ACAD_REACTORS
330
6105
102
}
330
1F
100
AcDbEntity
  8
Object
 62
     0
 48
0.3
100
AcDbCircle
 10
545.2685729416677
 20
824.29208677584
 30
0.0
 40
1.35
100
AcDbArc
 50
180.0
 51
0.0
  0
LINE
  5
610A
330
1F
100
AcDbEntity
  8
Object
 62
     0
 48
0.3
100
AcDbLine
 10
541.2185729416676
 20
834.8220867758399
 30
0.0
 11
543.9185729416676
 21
834.8220867758399
 31
0.0
  0
LINE
  5
610B
102
{ACAD_REACTORS
330
6105
102
}
330
1F
100
AcDbEntity
  8
Object
 62
     0
 48
0.3
100
AcDbLine
 10
543.9185729416676
 20
834.8220867758399
 30
0.0
 11
541.2185729416676
 21
834.8220867758399
 31
0.0
  0
LINE
  5
610C
102
{ACAD_REACTORS
330
610F
102
}
330
1F
100
AcDbEntity
  8
Object
 62
     0
 48
0.3
100
AcDbLine
 10
556.5185729416677
 20
834.8220867758399
 30
0.0
 11
556.5185729416677
 21
822.9420867758401
 31
0.0
  0
LINE
  5
610D
102
{ACAD_REACTORS
330
6105
102
}
330
1F
100
AcDbEntity
  8
Object
 62
     0
 48
0.3
100
AcDbLine
 10
549.3185729416677
 20
834.8220867758399
 30
0.0
 11
549.3185729416677
 21
824.29208677584
 31
0.0
  0
LINE
  5
610E
102
{ACAD_REACTORS
330
610F
102
}
330
1F
100
AcDbEntity
  8
Object
 62
     0
 48
0.3
100
AcDbLine
 10
553.8185729416677
 20
834.8220867758399
 30
0.0
 11
553.8185729416677
 21
820.24208677584
 31
0.0
  0
HATCH
  5
610F
330
1F
100
AcDbEntity
  8
Object
 62
     0
 48
0.3
100
AcDbHatch
 10
0.0
 20
0.0
 30
0.0
210
0.0
220
0.0
230
1.0
  2
ANSI31
 70
     0
 71
     1
 91
        1
 92
        1
 93
        6
 72
     1
 10
553.8185729416677
 20
834.8220867758399
 11
556.5185729416677
 21
834.8220867758399
 72
     1
 10
556.5185729416677
 20
834.8220867758399
 11
556.5185729416677
 21
822.9420867758401
 72
     1
 10
556.5185729416677
 20
822.9420867758401
 11
561.9185729416677
 21
822.9420867758401
 72
     1
 10
561.9185729416677
 20
822.9420867758401
 11
561.9185729416677
 21
820.24208677584
 72
     1
 10
561.9185729416677
 20
820.24208677584
 11
553.8185729416677
 21
820.24208677584
 72
     1
 10
553.8185729416677
 20
820.24208677584
 11
553.8185729416677
 21
834.8220867758399
 97
        6
330
6113
330
610C
330
6112
330
6111
330
6110
330
610E
 75
     0
 76
     1
 52
0.0
 41
0.01125
 77
     0
 78
     1
 53
45.0
 43
388.6807673218097
 44
717.6334720785245
 45
-0.025256970340507
 46
0.025256970340507
 79
     0
 98
        1
 10
388.6807673218097
 20
717.6334720785245
  0
LINE
  5
6110
102
{ACAD_REACTORS
330
610F
102
}
330
1F
100
AcDbEntity
  8
Object
 62
     0
 48
0.3
100
AcDbLine
 10
553.8185729416677
 20
820.24208677584
 30
0.0
 11
561.9185729416677
 21
820.24208677584
 31
0.0
  0
LINE
  5
6111
102
{ACAD_REACTORS
330
610F
102
}
330
1F
100
AcDbEntity
  8
Object
 62
     0
 48
0.3
100
AcDbLine
 10
561.9185729416677
 20
820.24208677584
 30
0.0
 11
561.9185729416677
 21
822.9420867758401
 31
0.0
  0
LINE
  5
6112
102
{ACAD_REACTORS
330
610F
102
}
330
1F
100
AcDbEntity
  8
Object
 62
     0
 48
0.3
100
AcDbLine
 10
561.9185729416677
 20
822.9420867758401
 30
0.0
 11
556.5185729416677
 21
822.9420867758401
 31
0.0
  0
LINE
  5
6113
102
{ACAD_REACTORS
330
610F
102
}
330
1F
100
AcDbEntity
  8
Object
 62
     0
 48
0.3
100
AcDbLine
 10
553.8185729416677
 20
834.8220867758399
 30
0.0
 11
556.5185729416677
 21
834.8220867758399
 31
0.0
  0
LINE
  5
6114
330
1F
100
AcDbEntity
  8
Object
 62
     0
 48
0.3
100
AcDbLine
 10
572.4181132541859
 20
830.7720867758398
 30
0.0
 11
572.4181132541859
 21
829.2123630550754
 31
0.0
  0
LINE
  5
6115
330
1F
100
AcDbEntity
  8
Object
 62
     0
 48
0.3
100
AcDbLine
 10
567.0181132541858
 20
824.3086653690383
 30
0.0
 11
567.0181132541858
 21
830.7720867758398
 31
0.0
  0
LINE
  5
6116
330
1F
100
AcDbEntity
  8
Object
 62
     0
 48
0.3
100
AcDbLine
 10
564.3181132541858
 20
824.1537331999293
 30
0.0
 11
564.3181132541858
 21
830.7720867758398
 31
0.0
  0
LINE
  5
6117
330
1F
100
AcDbEntity
  8
Object
 62
     0
 48
0.3
100
AcDbLine
 10
569.7181132541859
 20
829.2123630550754
 30
0.0
 11
569.7181132541859
 21
830.7720867758398
 31
0.0
  0
LINE
  5
6118
330
1F
100
AcDbEntity
  8
Object
 62
     0
 48
0.3
100
AcDbLine
 10
567.0181132541858
 20
824.3086653690383
 30
0.0
 11
567.0181132541858
 21
830.7720867758398
 31
0.0
  0
HATCH
  5
6119
330
1F
100
AcDbEntity
  8
Object
 62
     0
 48
0.3
100
AcDbHatch
 10
0.0
 20
0.0
 30
0.0
210
0.0
220
0.0
230
1.0
  2
ANSI31
 70
     0
 71
     0
 91
        1
 92
        7
 72
     1
 73
     1
 93
       17
 10
567.0181132541858
 20
824.3086653690385
 42
0.0
 10
567.0181132541858
 20
830.77208677584
 42
-1.0
 10
569.7181132541859
 20
830.77208677584
 42
0.0
 10
569.7181132541859
 20
829.2123630550756
 42
0.0
 10
572.4181132541859
 20
829.2123630550756
 42
0.0
 10
572.4181132541859
 20
830.77208677584
 42
1.0
 10
564.3181132541858
 20
830.77208677584
 42
0.0
 10
564.3181132541858
 20
824.3086653690385
 42
0.3509045778193816
 10
567.4808271837385
 20
820.3570551365903
 42
0.4071999015487891
 10
569.7181132541859
 20
821.6727720151556
 42
0.0
 10
569.7181132541859
 20
820.24208677584
 42
0.0
 10
572.4181132541859
 20
820.24208677584
 42
0.0
 10
572.4181132541859
 20
827.58962883278
 42
0.0
 10
568.371917058751
 20
827.58962883278
 42
0.0
 10
568.3719170587507
 20
824.8896288327799
 42
0.0
 10
569.7181132541859
 20
824.8896288327799
 42
0.0
 10
569.7181132541859
 20
824.3086653690385
 42
-1.0
 97
        0
 75
     0
 76
     1
 52
0.0
 41
0.01125
 77
     0
 78
     1
 53
45.0
 43
388.6807673218097
 44
717.6334720785245
 45
-0.025256970340507
 46
0.025256970340507
 79
     0
 47
0.0407053698821989
 98
        1
 10
568.0942869891232
 20
822.1037355012922
  0
LINE
  5
611A
330
1F
100
AcDbEntity
  8
Object
 62
     0
 48
0.3
100
AcDbLine
 10
569.7181132541859
 20
829.2123630550754
 30
0.0
 11
572.4181132541859
 21
829.2123630550754
 31
0.0
  0
LINE
  5
611B
330
1F
100
AcDbEntity
  8
Object
 62
     0
 48
0.3
100
AcDbLine
 10
572.4181132541859
 20
827.5896288327798
 30
0.0
 11
568.371917058751
 21
827.5896288327798
 31
0.0
  0
LINE
  5
611C
330
1F
100
AcDbEntity
  8
Object
 62
     0
 48
0.3
100
AcDbLine
 10
569.7181132541859
 20
820.24208677584
 30
0.0
 11
572.4181132541859
 21
820.24208677584
 31
0.0
  0
LINE
  5
611D
330
1F
100
AcDbEntity
  8
Object
 62
     0
 48
0.3
100
AcDbLine
 10
572.4181132541859
 20
820.24208677584
 30
0.0
 11
569.7181132541859
 21
820.24208677584
 31
0.0
  0
LINE
  5
611E
330
1F
100
AcDbEntity
  8
Object
 62
     0
 48
0.3
100
AcDbLine
 10
568.371917058751
 20
827.5896288327798
 30
0.0
 11
568.371917058751
 21
824.8896288327799
 31
0.0
  0
LINE
  5
611F
330
1F
100
AcDbEntity
  8
Object
 62
     0
 48
0.3
100
AcDbLine
 10
568.371917058751
 20
824.8896288327799
 30
0.0
 11
569.7181132541859
 21
824.8896288327799
 31
0.0
  0
LINE
  5
6120
330
1F
100
AcDbEntity
  8
Object
 62
     0
 48
0.3
100
AcDbLine
 10
569.7181132541859
 20
824.3086653690383
 30
0.0
 11
569.7181132541859
 21
824.8896288327799
 31
0.0
  0
LINE
  5
6121
330
1F
100
AcDbEntity
  8
Object
 62
     0
 48
0.3
100
AcDbLine
 10
569.7181132541859
 20
824.8896288327799
 30
0.0
 11
569.7181132541859
 21
824.2651066341716
 31
0.0
  0
LINE
  5
6122
330
1F
100
AcDbEntity
  8
Object
 62
     0
 48
0.3
100
AcDbLine
 10
568.371917058751
 20
824.8896288327799
 30
0.0
 11
569.7181132541859
 21
824.8896288327799
 31
0.0
  0
LINE
  5
6123
330
1F
100
AcDbEntity
  8
Object
 62
     0
 48
0.3
100
AcDbLine
 10
569.7181132541859
 20
824.8896288327799
 30
0.0
 11
569.7181132541859
 21
824.3086653690383
 31
0.0
  0
ARC
  5
6124
330
1F
100
AcDbEntity
  8
Object
 62
     0
 48
0.3
100
AcDbCircle
 10
568.3681132541858
 20
824.3086653690383
 30
0.0
 40
1.35
100
AcDbArc
 50
180.0
 51
0.0
  0
ARC
  5
6125
330
1F
100
AcDbEntity
  8
Object
 62
     0
 48
0.3
100
AcDbCircle
 10
567.9256270136168
 20
822.1607376065174
 30
0.0
 40
1.857718315833298
100
AcDbArc
 50
256.1468978562146
 51
344.7714912032799
  0
LINE
  5
6126
330
1F
100
AcDbEntity
  8
Object
 62
     0
 48
0.3
100
AcDbLine
 10
569.7181132541859
 20
821.672772015151
 30
0.0
 11
569.7181132541859
 21
820.24208677584
 31
0.0
  0
LINE
  5
6127
330
1F
100
AcDbEntity
  8
Object
 62
     0
 48
0.3
100
AcDbLine
 10
572.4181132541859
 20
827.5896288327794
 30
0.0
 11
572.4181132541859
 21
820.24208677584
 31
0.0
  0
ARC
  5
6128
330
1F
100
AcDbEntity
  8
Object
 62
     0
 48
0.3
100
AcDbCircle
 10
568.3681132541858
 20
830.7720867758398
 30
0.0
 40
4.049999999999999
100
AcDbArc
 50
0.0
 51
180.0
  0
ARC
  5
6129
330
1F
100
AcDbEntity
  8
Object
 62
     0
 48
0.3
100
AcDbCircle
 10
568.3681132541858
 20
830.7720867758398
 30
0.0
 40
1.35
100
AcDbArc
 50
0.0
 51
180.0
  0
LINE
  5
612A
330
1F
100
AcDbEntity
  8
２
 62
     0
 48
25.0
100
AcDbLine
 10
-117.6069841392893
 20
817.5308658634676
 30
0.0
 11
682.3930158607106
 21
817.5308658634675
 31
0.0
  0
LINE
  5
61A6
330
1F
100
AcDbEntity
  8
２
 62
     0
 48
25.0
100
AcDbLine
 10
-117.6069841392893
 20
817.5308658634675
 30
0.0
 11
-117.6069841392893
 21
1367.530865863467
 31
0.0
  0
LINE
  5
61A7
330
1F
100
AcDbEntity
  8
２
 62
     0
 48
25.0
100
AcDbLine
 10
-117.6069841392893
 20
1367.530865863467
 30
0.0
 11
682.3930158607105
 21
1367.530865863467
 31
0.0
  0
LINE
  5
61A8
330
1F
100
AcDbEntity
  8
２
 62
     0
 48
25.0
100
AcDbLine
 10
682.3930158607105
 20
1367.530865863467
 30
0.0
 11
682.3930158607106
 21
817.5308658634675
 31
0.0
  0
MTEXT
  5
6487
330
1F
100
AcDbEntity
  8
４
 62
     0
 48
0.5
100
AcDbMText
 10
171.1613615566535
 20
820.0308658634675
 30
0.0
 40
2.5
 41
7.0048
 71
     5
 72
     5
  1
6
 73
     1
 44
1.0
  0
MTEXT
  5
805E
330
1F
100
AcDbEntity
  8
0
 48
0.5
100
AcDbMText
 10
29.16955816236122
 20
1035.5359660895
 30
0.0
 40
6.0
 41
20.438
 71
     9
 72
     1
  1

 73
     1
 44
1.0
  0
MTEXT
  5
8061
330
1F
100
AcDbEntity
  8
0
 48
0.5
100
AcDbMText
 10
18.39555542707603
 20
1011.50872061242
 30
0.0
 40
6.0
 41
20.438
 71
     9
 72
     1
  1

 73
     1
 44
1.0
  0
LINE
  5
9A4B
330
1F
100
AcDbEntity
  8
0
 62
     0
 48
0.3
100
AcDbLine
 10
191.8120328371089
 20
1013.688313303515
 30
0.0
 11
191.8120328371089
 21
1043.423569744142
 31
0.0
  0
LINE
  5
9A4C
330
1F
100
AcDbEntity
  8
0
 62
     0
 48
0.3
100
AcDbLine
 10
199.8120328371089
 20
1013.688313303515
 30
0.0
 11
199.8120328371089
 21
1043.423569744142
 31
0.0
  0
LINE
  5
9A4F
330
1F
100
AcDbEntity
  8
0
 62
     0
 48
0.3
100
AcDbLine
 10
199.8120328371089
 20
997.8083133035157
 30
0.0
 11
199.8120328371089
 21
1002.808313303515
 31
0.0
  0
LINE
  5
9A50
330
1F
100
AcDbEntity
  8
0
 62
     0
 48
0.3
100
AcDbLine
 10
191.8120328371089
 20
997.8083133035157
 30
0.0
 11
191.8120328371089
 21
1002.805186390499
 31
0.0
  0
LINE
  5
9A62
330
1F
100
AcDbEntity
  8
0
 62
     0
 48
0.3
100
AcDbLine
 10
198.8120328371089
 20
1045.188243525059
 30
0.0
 11
198.8120328371089
 21
1047.688243525059
 31
0.0
  0
LINE
  5
9A63
330
1F
100
AcDbEntity
  8
0
 62
     0
 48
0.3
100
AcDbLine
 10
192.8120328371089
 20
1045.188243525059
 30
0.0
 11
198.8120328371089
 21
1045.188243525059
 31
0.0
  0
LINE
  5
9A64
330
1F
100
AcDbEntity
  8
0
 62
     0
 48
0.3
100
AcDbLine
 10
192.8120328371089
 20
1045.188243525059
 30
0.0
 11
192.8120328371089
 21
1047.688243525059
 31
0.0
  0
LINE
  5
9A65
330
1F
100
AcDbEntity
  8
0
 62
     0
 48
0.3
100
AcDbLine
 10
195.8120328371089
 20
1045.188243525059
 30
0.0
 11
192.8120328371089
 21
1045.188243525059
 31
0.0
  0
LINE
  5
9A66
330
1F
100
AcDbEntity
  8
0
 62
     0
 48
0.3
100
AcDbLine
 10
191.8120328371089
 20
1047.688243525059
 30
0.0
 11
191.8120328371089
 21
1048.688243525059
 31
0.0
  0
LINE
  5
9A67
330
1F
100
AcDbEntity
  8
0
 62
     0
 48
0.3
100
AcDbLine
 10
199.8120328371089
 20
1047.688243525059
 30
0.0
 11
199.8120328371089
 21
1048.718489056006
 31
0.0
  0
ARC
  5
9A68
330
1F
100
AcDbEntity
  8
0
 62
     0
 48
0.3
100
AcDbCircle
 10
195.8120328371089
 20
1048.688243525059
 30
0.0
 40
4.0
100
AcDbArc
 50
0.0
 51
179.9999999999999
  0
LINE
  5
9A69
330
1F
100
AcDbEntity
  8
0
 62
     0
 48
0.3
100
AcDbLine
 10
191.8120328371089
 20
1047.688243525059
 30
0.0
 11
191.8120328371089
 21
1048.688243525059
 31
0.0
  0
LINE
  5
9A6A
330
1F
100
AcDbEntity
  8
0
 62
     0
 48
0.3
100
AcDbLine
 10
199.8120328371089
 20
1045.188243525059
 30
0.0
 11
191.8120328371089
 21
1045.188243525059
 31
0.0
  0
LINE
  5
9A6B
330
1F
100
AcDbEntity
  8
0
 62
     0
 48
0.3
100
AcDbLine
 10
199.8120328371089
 20
1047.688243525059
 30
0.0
 11
191.8120328371089
 21
1047.688243525059
 31
0.0
  0
CIRCLE
  5
9A6C
330
1F
100
AcDbEntity
  8
0
 62
     0
 48
0.3
100
AcDbCircle
 10
195.8120328371089
 20
1046.438243525059
 30
0.0
 40
1.0
  0
LINE
  5
9A94
330
1F
100
AcDbEntity
  8
0
 62
     0
 48
0.5
100
AcDbLine
 10
198.5120328371089
 20
993.8824532994258
 30
0.0
 11
198.5120328371088
 21
954.583299217935
 31
0.0
  0
ARC
  5
9AA1
330
1F
100
AcDbEntity
  8
0
 62
     0
 48
0.5
100
AcDbCircle
 10
204.3120328371089
 20
918.1914334505522
 30
0.0
 40
30.0
100
AcDbArc
 50
108.991577856377
 51
260.3547697311754
  0
LINE
  5
9AAC
330
1F
100
AcDbEntity
  8
0
 62
     0
 48
0.5
100
AcDbLine
 10
194.54915787949
 20
946.5584261103654
 30
0.0
 11
195.1332817080414
 21
946.7527801924452
 31
0.0
  0
ARC
  5
9AB2
330
1F
100
AcDbEntity
  8
0
 62
     0
 48
0.5
100
AcDbCircle
 10
215.3120328371089
 20
954.9296411751194
 30
0.0
 40
10.0
100
AcDbArc
 50
180.0
 51
205.7922248784076
  0
ARC
  5
9AB3
330
1F
100
AcDbEntity
  8
0
 62
     0
 48
0.5
100
AcDbCircle
 10
213.2295123709257
 20
954.5266527558201
 30
0.0
 40
6.117741794840355
100
AcDbArc
 50
179.4694693415183
 51
218.6365405772611
  0
ARC
  5
9AB4
330
1F
100
AcDbEntity
  8
0
 62
     0
 48
0.5
100
AcDbCircle
 10
210.9012420164258
 20
952.5655854021451
 30
0.0
 40
5.0
100
AcDbArc
 50
205.7922248784101
 51
259.1485608428424
  0
ARC
  5
9AB7
330
1F
100
AcDbEntity
  8
0
 62
     0
 48
0.5
100
AcDbCircle
 10
212.0607577953928
 20
954.1663867030703
 30
0.0
 40
5.0
100
AcDbArc
 50
223.7809633013342
 51
257.8446420405546
  0
LINE
  5
9AB9
330
1F
100
AcDbEntity
  8
0
 62
     0
 48
0.5
100
AcDbLine
 10
203.3120328371088
 20
956.8523742661934
 30
0.0
 11
203.3120328371089
 21
995.3051863904997
 31
0.0
  0
LINE
  5
9ABA
330
1F
100
AcDbEntity
  8
0
 62
     0
 48
0.5
100
AcDbLine
 10
207.1120328371089
 20
954.4700062937058
 30
0.0
 11
207.1120328371089
 21
993.8824532994258
 31
0.0
  0
ARC
  5
9ABC
330
1F
100
AcDbEntity
  8
0
 62
     0
 48
0.5
100
AcDbCircle
 10
194.9111446634006
 20
948.7130776279409
 30
0.0
 40
1.736429254628733
100
AcDbArc
 50
25.73650966652952
 51
91.7523474212345
  0
ARC
  5
9ABE
330
1F
100
AcDbEntity
  8
0
 62
     0
 48
0.5
100
AcDbCircle
 10
210.6287003059434
 20
949.4465130384218
 30
0.0
 40
1.736429254628733
100
AcDbArc
 50
88.24765257876551
 51
154.2634903334704
  0
LINE
  5
9AC1
330
1F
100
AcDbEntity
  8
0
 62
     0
 48
0.5
100
AcDbLine
 10
206.3082545909787
 20
950.5785519672874
 30
0.0
 11
206.3993528933608
 21
950.3900407982289
 31
0.0
  0
ARC
  5
9AC4
330
1F
100
AcDbEntity
  8
0
 62
     0
 48
0.5
100
AcDbCircle
 10
204.2757924379867
 20
881.8069391432686
 30
0.0
 40
2.784730133033331
100
AcDbArc
 50
118.3300826918808
 51
66.53144618511678
  0
ARC
  5
9AC5
330
1F
100
AcDbEntity
  8
0
 62
     0
 48
0.5
100
AcDbCircle
 10
195.7528044657751
 20
900.4003594994101
 30
0.0
 40
13.9178504116532
100
AcDbArc
 50
237.3157969631134
 51
283.1978004974561
  0
ARC
  5
9AC6
330
1F
100
AcDbEntity
  8
0
 62
     0
 48
0.5
100
AcDbCircle
 10
213.0150470622353
 20
900.425388683014
 30
0.0
 40
13.9178504116532
100
AcDbArc
 50
256.8021995025438
 51
302.6842030368865
  0
ARC
  5
9AC7
330
1F
100
AcDbEntity
  8
0
 62
     0
 48
0.5
100
AcDbCircle
 10
204.3120328371089
 20
918.1914334505522
 30
0.0
 40
33.6
100
AcDbArc
 50
298.8177953671216
 51
79.1611277340957
  0
LINE
  5
9AD2
330
1F
100
AcDbEntity
  8
0
 62
     0
 48
0.5
100
AcDbLine
 10
198.5120328371089
 20
993.8824532994258
 30
0.0
 11
200.3120328371089
 21
993.8824532994258
 31
0.0
  0
LINE
  5
9AD4
330
1F
100
AcDbEntity
  8
0
 62
     0
 48
0.5
100
AcDbLine
 10
207.1120328371089
 20
993.8824532994258
 30
0.0
 11
207.1120328371089
 21
981.3824532994258
 31
0.0
  0
LINE
  5
9AD7
330
1F
100
AcDbEntity
  8
0
 62
     0
 48
0.5
100
AcDbLine
 10
203.3120328371089
 20
963.2719130196688
 30
0.0
 11
203.3120328371089
 21
950.4050399326848
 31
0.0
  0
LINE
  5
9AD8
330
1F
100
AcDbEntity
  8
0
 62
     0
 48
0.5
100
AcDbLine
 10
205.3120328371088
 20
950.4383133035158
 30
0.0
 11
203.3120328371088
 21
950.4383133035158
 31
0.0
  0
LINE
  5
9AD9
330
1F
100
AcDbEntity
  8
0
 62
     0
 48
0.5
100
AcDbLine
 10
203.3120328371088
 20
950.4383133035158
 30
0.0
 11
203.3120328371089
 21
995.3051863904997
 31
0.0
  0
LINE
  5
9ADA
330
1F
100
AcDbEntity
  8
0
 62
     0
 48
0.5
100
AcDbLine
 10
202.8120328371089
 20
995.8051863904998
 30
0.0
 11
188.3120328371089
 21
995.8051863904998
 31
0.0
  0
LINE
  5
9ADB
330
1F
100
AcDbEntity
  8
0
 62
     0
 48
0.5
100
AcDbLine
 10
205.3120328371088
 20
950.4383133035158
 30
0.0
 11
205.3120328371089
 21
996.3083133035157
 31
0.0
  0
LINE
  5
9ADC
330
1F
100
AcDbEntity
  8
0
 62
     0
 48
0.5
100
AcDbLine
 10
203.8120328371089
 20
997.8083133035157
 30
0.0
 11
188.3120328371089
 21
997.8083133035157
 31
0.0
  0
LINE
  5
9ADD
330
1F
100
AcDbEntity
  8
0
 62
     0
 48
0.5
100
AcDbLine
 10
188.3120328371089
 20
997.4383133035157
 30
0.0
 11
188.3120328371089
 21
995.8051863904998
 31
0.0
  0
LINE
  5
9B06
330
1F
100
AcDbEntity
  8
0
 62
     0
 48
0.3
100
AcDbLine
 10
189.1120328371089
 20
958.8824532994618
 30
0.0
 11
193.5359744259341
 21
958.8824532994618
 31
0.0
  0
LINE
  5
9B07
330
1F
100
AcDbEntity
  8
0
 62
     0
 48
0.3
100
AcDbLine
 10
189.1120328371089
 20
963.8824532994616
 30
0.0
 11
193.5200849459518
 21
963.8824532994616
 31
0.0
  0
LINE
  5
9B08
330
1F
100
AcDbEntity
  8
0
 62
     0
 48
0.3
100
AcDbLine
 10
193.5375633739323
 20
958.3824532994617
 30
0.0
 11
189.6120328371089
 21
958.3824532994617
 31
0.0
  0
LINE
  5
9B09
330
1F
100
AcDbEntity
  8
0
 62
     0
 48
0.3
100
AcDbLine
 10
189.6120328371089
 20
964.3824532994617
 30
0.0
 11
193.5184959979535
 21
964.3824532994617
 31
0.0
  0
LINE
  5
9B0A
330
1F
100
AcDbEntity
  8
0
 62
     0
 48
0.3
100
AcDbLine
 10
189.6120328371089
 20
958.3824532994617
 30
0.0
 11
189.1120328371089
 21
958.8824532994618
 31
0.0
  0
LINE
  5
9B0B
330
1F
100
AcDbEntity
  8
0
 62
     0
 48
0.3
100
AcDbLine
 10
189.6120328371089
 20
964.3824532994617
 30
0.0
 11
189.6120328371089
 21
958.3824532994617
 31
0.0
  0
LINE
  5
9B0C
330
1F
100
AcDbEntity
  8
0
 62
     0
 48
0.3
100
AcDbLine
 10
189.6120328371089
 20
964.3824532994617
 30
0.0
 11
189.1120328371089
 21
963.8824532994616
 31
0.0
  0
LINE
  5
9B0D
330
1F
100
AcDbEntity
  8
0
 62
     0
 48
0.3
100
AcDbLine
 10
189.1120328371089
 20
958.8824532994618
 30
0.0
 11
189.1120328371089
 21
963.8824532994616
 31
0.0
  0
LINE
  5
9B14
330
1F
100
AcDbEntity
  8
0
 62
     0
 48
0.3
100
AcDbLine
 10
207.1120328371089
 20
961.3824532994618
 30
0.0
 11
207.1120328371089
 21
958.3824532994617
 31
0.0
  0
ARC
  5
9B1B
330
1F
100
AcDbEntity
  8
0
 62
     0
 48
0.3
100
AcDbCircle
 10
195.9015636879472
 20
977.2037030158465
 30
0.0
 40
2.360242450166392
100
AcDbArc
 50
142.8609433692578
 51
217.1390566307447
  0
LINE
  5
9B1D
330
1F
100
AcDbEntity
  8
0
 62
     0
 48
0.3
100
AcDbLine
 10
198.5252667817123
 20
975.7756709784587
 30
0.0
 11
198.0200431795372
 21
975.7787030158466
 31
0.0
  0
LINE
  5
9B1E
330
1F
100
AcDbEntity
  8
0
 62
     0
 48
0.3
100
AcDbLine
 10
194.0200431795372
 20
975.7787030158466
 30
0.0
 11
198.0200431795372
 21
975.7787030158466
 31
0.0
  0
ARC
  5
9B1F
330
1F
100
AcDbEntity
  8
0
 62
     0
 48
0.3
100
AcDbCircle
 10
195.7768567970764
 20
985.5537030158464
 30
0.0
 40
2.262082908907492
100
AcDbArc
 50
140.9535378530498
 51
219.0464621469501
  0
LINE
  5
9B20
330
1F
100
AcDbEntity
  8
0
 62
     0
 48
0.3
100
AcDbLine
 10
193.5147738881689
 20
985.5537030158464
 30
0.0
 11
193.5413331557617
 21
977.1962024486875
 31
0.0
  0
ARC
  5
9B22
330
1F
100
AcDbEntity
  8
0
 62
     0
 48
0.3
100
AcDbCircle
 10
201.3905773406501
 20
981.3787030158463
 30
0.0
 40
7.866846497811707
100
AcDbArc
 50
159.5390885234377
 51
200.4609114765653
  0
LINE
  5
9B23
330
1F
100
AcDbEntity
  8
0
 62
     0
 48
0.3
100
AcDbLine
 10
198.0200431795372
 20
984.1287030158465
 30
0.0
 11
198.5033006607013
 21
984.1302387578611
 31
0.0
  0
LINE
  5
9B24
330
1F
100
AcDbEntity
  8
0
 62
     0
 48
0.3
100
AcDbLine
 10
198.0200431795372
 20
978.6287030158463
 30
0.0
 11
198.5207789121686
 21
978.6302943019263
 31
0.0
  0
LINE
  5
9B25
330
1F
100
AcDbEntity
  8
0
 62
     0
 48
0.3
100
AcDbLine
 10
194.0200431795372
 20
984.1287030158465
 30
0.0
 11
198.0200431795372
 21
984.1287030158465
 31
0.0
  0
LINE
  5
9B26
330
1F
100
AcDbEntity
  8
0
 62
     0
 48
0.3
100
AcDbLine
 10
194.0200431795372
 20
978.6287030158463
 30
0.0
 11
198.0200431795372
 21
978.6287030158463
 31
0.0
  0
LINE
  5
9B28
330
1F
100
AcDbEntity
  8
0
 62
     0
 48
0.3
100
AcDbLine
 10
198.4987651212934
 20
986.9807886572889
 30
0.0
 11
198.0200431795372
 21
986.9787030158462
 31
0.0
  0
LINE
  5
9B29
330
1F
100
AcDbEntity
  8
0
 62
     0
 48
0.3
100
AcDbLine
 10
198.0200431795372
 20
986.9787030158462
 30
0.0
 11
194.0200431795372
 21
986.9787030158462
 31
0.0
  0
LINE
  5
9B2A
330
1F
100
AcDbEntity
  8
0
 62
     0
 48
0.5
100
AcDbLine
 10
207.1120328371089
 20
963.8824532994616
 30
0.0
 11
207.1120328371089
 21
958.8824532994618
 31
0.0
  0
ARC
  5
9B2B
330
1F
100
AcDbEntity
  8
0
 62
     0
 48
0.3
100
AcDbCircle
 10
204.2334883335677
 20
961.3862035830411
 30
0.0
 40
7.866846497811707
100
AcDbArc
 50
339.5390885234377
 51
20.46091147656529
  0
LINE
  5
9B2D
330
1F
100
AcDbEntity
  8
0
 62
     0
 48
0.3
100
AcDbLine
 10
212.1092917860487
 20
957.2112035830413
 30
0.0
 11
212.0827325184559
 21
965.5687041502002
 31
0.0
  0
LINE
  5
9B2E
330
1F
100
AcDbEntity
  8
0
 62
     0
 48
0.3
100
AcDbLine
 10
211.6040224946805
 20
964.1362035830411
 30
0.0
 11
207.6040224946805
 21
964.1362035830411
 31
0.0
  0
LINE
  5
9B2F
330
1F
100
AcDbEntity
  8
0
 62
     0
 48
0.3
100
AcDbLine
 10
207.6040224946805
 20
964.1362035830411
 30
0.0
 11
207.103286762049
 21
964.1346122969611
 31
0.0
  0
LINE
  5
9B30
330
1F
100
AcDbEntity
  8
0
 62
     0
 48
0.3
100
AcDbLine
 10
211.6040224946805
 20
966.986203583041
 30
0.0
 11
207.6040224946805
 21
966.986203583041
 31
0.0
  0
LINE
  5
9B31
330
1F
100
AcDbEntity
  8
0
 62
     0
 48
0.3
100
AcDbLine
 10
207.0987988925053
 20
966.9892356204286
 30
0.0
 11
207.6040224946805
 21
966.986203583041
 31
0.0
  0
ARC
  5
9B33
330
1F
100
AcDbEntity
  8
0
 62
     0
 48
0.3
100
AcDbCircle
 10
209.7225019862705
 20
965.5612035830412
 30
0.0
 40
2.360242450166392
100
AcDbArc
 50
322.8609433692578
 51
37.13905663074475
  0
LINE
  5
9B34
330
1F
100
AcDbEntity
  8
0
 62
     0
 48
0.3
100
AcDbLine
 10
207.6040224946805
 20
955.7862035830412
 30
0.0
 11
211.6040224946805
 21
955.7862035830412
 31
0.0
  0
LINE
  5
9B35
330
1F
100
AcDbEntity
  8
0
 62
     0
 48
0.3
100
AcDbLine
 10
207.1253005529242
 20
955.7841179415985
 30
0.0
 11
207.6040224946805
 21
955.7862035830412
 31
0.0
  0
LINE
  5
9B37
330
1F
100
AcDbEntity
  8
0
 62
     0
 48
0.3
100
AcDbLine
 10
211.6040224946805
 20
958.6362035830411
 30
0.0
 11
207.6040224946805
 21
958.6362035830411
 31
0.0
  0
LINE
  5
9B38
330
1F
100
AcDbEntity
  8
0
 62
     0
 48
0.3
100
AcDbLine
 10
207.6040224946805
 20
958.6362035830411
 30
0.0
 11
207.1207650135163
 21
958.6346678410263
 31
0.0
  0
ARC
  5
9B39
330
1F
100
AcDbEntity
  8
0
 62
     0
 48
0.3
100
AcDbCircle
 10
209.8472088771413
 20
957.2112035830413
 30
0.0
 40
2.262082908907492
100
AcDbArc
 50
320.9535378530498
 51
39.04646214695013
  0
LINE
  5
9B3A
330
1F
100
AcDbEntity
  8
0
 62
     0
 48
0.3
100
AcDbLine
 10
189.1120328371089
 20
978.8824532994617
 30
0.0
 11
193.5359744259341
 21
978.882453299462
 31
0.0
  0
LINE
  5
9B3B
330
1F
100
AcDbEntity
  8
0
 62
     0
 48
0.3
100
AcDbLine
 10
193.5375633739323
 20
978.3824532994618
 30
0.0
 11
189.6120328371089
 21
978.3824532994618
 31
0.0
  0
LINE
  5
9B3C
330
1F
100
AcDbEntity
  8
0
 62
     0
 48
0.3
100
AcDbLine
 10
189.1120328371089
 20
983.8824532994618
 30
0.0
 11
193.5200849459518
 21
983.8824532994618
 31
0.0
  0
LINE
  5
9B3D
330
1F
100
AcDbEntity
  8
0
 62
     0
 48
0.3
100
AcDbLine
 10
189.6120328371089
 20
984.3824532994617
 30
0.0
 11
193.5184959979535
 21
984.3824532994617
 31
0.0
  0
LINE
  5
9B3E
330
1F
100
AcDbEntity
  8
0
 62
     0
 48
0.3
100
AcDbLine
 10
189.6120328371089
 20
978.3824532994618
 30
0.0
 11
189.1120328371089
 21
978.8824532994617
 31
0.0
  0
LINE
  5
9B3F
330
1F
100
AcDbEntity
  8
0
 62
     0
 48
0.3
100
AcDbLine
 10
189.6120328371089
 20
984.3824532994617
 30
0.0
 11
189.1120328371089
 21
983.8824532994618
 31
0.0
  0
LINE
  5
9B40
330
1F
100
AcDbEntity
  8
0
 62
     0
 48
0.3
100
AcDbLine
 10
189.6120328371089
 20
984.3824532994617
 30
0.0
 11
189.6120328371089
 21
978.3824532994618
 31
0.0
  0
LINE
  5
9B41
330
1F
100
AcDbEntity
  8
0
 62
     0
 48
0.3
100
AcDbLine
 10
189.1120328371089
 20
978.8824532994617
 30
0.0
 11
189.1120328371089
 21
983.8824532994618
 31
0.0
  0
LINE
  5
9B42
330
1F
100
AcDbEntity
  8
0
 62
     0
 48
0.3
100
AcDbLine
 10
207.6040224946805
 20
975.7862035830411
 30
0.0
 11
211.6040224946805
 21
975.7862035830411
 31
0.0
  0
LINE
  5
9B45
330
1F
100
AcDbEntity
  8
0
 62
     0
 48
0.3
100
AcDbLine
 10
211.6040224946805
 20
978.6362035830411
 30
0.0
 11
207.6040224946805
 21
978.6362035830411
 31
0.0
  0
ARC
  5
9B47
330
1F
100
AcDbEntity
  8
0
 62
     0
 48
0.3
100
AcDbCircle
 10
209.8472088771413
 20
977.2112035830412
 30
0.0
 40
2.262082908907492
100
AcDbArc
 50
320.9535378530498
 51
39.04646214695013
  0
LINE
  5
9B48
330
1F
100
AcDbEntity
  8
0
 62
     0
 48
0.3
100
AcDbLine
 10
211.6040224946805
 20
984.1362035830412
 30
0.0
 11
207.6040224946805
 21
984.1362035830412
 31
0.0
  0
LINE
  5
9B4A
330
1F
100
AcDbEntity
  8
0
 62
     0
 48
0.3
100
AcDbLine
 10
211.6040224946805
 20
986.986203583041
 30
0.0
 11
207.6040224946805
 21
986.986203583041
 31
0.0
  0
ARC
  5
9B4D
330
1F
100
AcDbEntity
  8
0
 62
     0
 48
0.3
100
AcDbCircle
 10
209.7225019862705
 20
985.5612035830411
 30
0.0
 40
2.360242450166392
100
AcDbArc
 50
322.8609433692578
 51
37.13905663074475
  0
ARC
  5
9B50
330
1F
100
AcDbEntity
  8
0
 62
     0
 48
0.3
100
AcDbCircle
 10
204.2334883335677
 20
981.386203583041
 30
0.0
 40
7.866846497811707
100
AcDbArc
 50
339.5390885234377
 51
20.46091147656529
  0
LINE
  5
9B52
330
1F
100
AcDbEntity
  8
0
 62
     0
 48
0.3
100
AcDbLine
 10
212.1092917860487
 20
977.2112035830412
 30
0.0
 11
212.0827325184559
 21
985.5687041502001
 31
0.0
  0
ARC
  5
9B53
330
1F
100
AcDbEntity
  8
0
 62
     0
 48
0.3
100
AcDbCircle
 10
195.9015636879472
 20
957.2037030158465
 30
0.0
 40
2.360242450166392
100
AcDbArc
 50
142.8609433692578
 51
217.1390566307447
  0
LINE
  5
9B55
330
1F
100
AcDbEntity
  8
0
 62
     0
 48
0.3
100
AcDbLine
 10
198.5252667817123
 20
955.7756709784587
 30
0.0
 11
198.0200431795372
 21
955.7787030158465
 31
0.0
  0
LINE
  5
9B56
330
1F
100
AcDbEntity
  8
0
 62
     0
 48
0.3
100
AcDbLine
 10
194.0200431795372
 20
955.7787030158465
 30
0.0
 11
198.0200431795372
 21
955.7787030158465
 31
0.0
  0
ARC
  5
9B57
330
1F
100
AcDbEntity
  8
0
 62
     0
 48
0.3
100
AcDbCircle
 10
195.7768567970764
 20
965.5537030158464
 30
0.0
 40
2.262082908907492
100
AcDbArc
 50
140.9535378530498
 51
219.0464621469501
  0
LINE
  5
9B59
330
1F
100
AcDbEntity
  8
0
 62
     0
 48
0.3
100
AcDbLine
 10
194.0200431795372
 20
964.1287030158464
 30
0.0
 11
198.0200431795372
 21
964.1287030158464
 31
0.0
  0
LINE
  5
9B5C
330
1F
100
AcDbEntity
  8
0
 62
     0
 48
0.3
100
AcDbLine
 10
198.0200431795372
 20
966.9787030158463
 30
0.0
 11
194.0200431795372
 21
966.9787030158463
 31
0.0
  0
LINE
  5
9B5D
330
1F
100
AcDbEntity
  8
0
 62
     0
 48
0.3
100
AcDbLine
 10
198.0200431795372
 20
958.6287030158464
 30
0.0
 11
198.5207789121686
 21
958.6302943019264
 31
0.0
  0
LINE
  5
9B5E
330
1F
100
AcDbEntity
  8
0
 62
     0
 48
0.3
100
AcDbLine
 10
194.0200431795372
 20
958.6287030158464
 30
0.0
 11
198.0200431795372
 21
958.6287030158464
 31
0.0
  0
LINE
  5
9B5F
330
1F
100
AcDbEntity
  8
0
 62
     0
 48
0.3
100
AcDbLine
 10
193.5147738881689
 20
965.5537030158464
 30
0.0
 11
193.5413331557617
 21
957.1962024486875
 31
0.0
  0
ARC
  5
9B61
330
1F
100
AcDbEntity
  8
0
 62
     0
 48
0.3
100
AcDbCircle
 10
201.3905773406501
 20
961.3787030158464
 30
0.0
 40
7.866846497811707
100
AcDbArc
 50
159.5390885234377
 51
200.4609114765653
  0
ARC
  5
9B65
330
1F
100
AcDbEntity
  8
0
 62
     0
 48
0.5
100
AcDbCircle
 10
191.6123838431991
 20
858.1900920545585
 30
0.0
 40
31.37809254922629
100
AcDbArc
 50
61.41505354078534
 51
75.84527663132151
  0
LINE
  5
9B67
330
1F
100
AcDbEntity
  8
0
 62
     0
 48
0.5
100
AcDbLine
 10
207.1459737727912
 20
886.5179622360948
 30
0.0
 11
206.9855620217149
 21
888.3108002293658
 31
0.0
  0
ARC
  5
9B6C
330
1F
100
AcDbEntity
  8
0
 62
     0
 48
0.5
100
AcDbCircle
 10
204.2757924379867
 20
881.8069391432686
 30
0.0
 40
4.584514957707383
100
AcDbArc
 50
123.6543766937503
 51
64.43316335244523
  0
LINE
  5
9B6D
330
1F
100
AcDbEntity
  8
0
 62
     0
 48
0.5
100
AcDbLine
 10
201.7351377518849
 20
885.6230695345724
 30
0.0
 11
203.6016733591055
 21
884.8302281136156
 31
0.0
  0
ARC
  5
9B6E
330
1F
100
AcDbEntity
  8
0
 62
     0
 48
0.5
100
AcDbCircle
 10
194.8550538833708
 20
866.4912656854765
 30
0.0
 40
20.76274004194809
100
AcDbArc
 50
59.49891259538002
 51
78.68028709284167
  0
ARC
  5
9B70
330
1F
100
AcDbEntity
  8
0
 62
     0
 48
0.5
100
AcDbCircle
 10
212.2502377148669
 20
871.5542118037957
 30
0.0
 40
17.56417049223607
100
AcDbArc
 50
107.441966353535
 51
118.1724046817952
  0
ARC
  5
9B71
330
1F
100
AcDbEntity
  8
0
 62
     0
 48
0.5
100
AcDbCircle
 10
208.9894959809766
 20
878.0810572279108
 30
0.0
 40
8.63596782353842
100
AcDbArc
 50
102.3257956840893
 51
111.1117692866276
  0
ARC
  5
9B72
330
1F
100
AcDbEntity
  8
0
 62
     0
 48
0.5
100
AcDbCircle
 10
204.3120328371089
 20
918.1914334505522
 30
0.0
 40
30.0
100
AcDbArc
 50
275.1128426758627
 51
79.14856084284274
  0
ARC
  5
9B75
330
1F
100
AcDbEntity
  8
0
 62
     0
 48
0.5
100
AcDbCircle
 10
204.3120328371089
 20
918.1914334505522
 30
0.0
 40
31.8
100
AcDbArc
 50
275.1128475804188
 51
77.84464204055469
  0
ARC
  5
9B76
330
1F
100
AcDbEntity
  8
0
 62
     0
 48
0.5
100
AcDbCircle
 10
212.2502377148669
 20
871.5542118037957
 30
0.0
 40
17.56417049223607
100
AcDbArc
 50
126.7745316920553
 51
126.774531692147
  0
ARC
  5
9B77
330
1F
100
AcDbEntity
  8
0
 62
     0
 48
0.5
100
AcDbCircle
 10
208.9894959809766
 20
878.0810572279108
 30
0.0
 40
8.63596782353842
100
AcDbArc
 50
128.6001570428845
 51
134.3343696986304
  0
CIRCLE
  5
9B79
330
1F
100
AcDbEntity
  8
0
 62
     0
 48
0.5
100
AcDbCircle
 10
204.2757924379867
 20
881.8069391432686
 30
0.0
 40
2.702174104323133
  0
LINE
  5
9B7E
330
1F
100
AcDbEntity
  8
0
 62
     0
 48
0.5
100
AcDbLine
 10
310.8744401295428
 20
992.5396185533948
 30
0.0
 11
310.8744401295428
 21
877.2338374728702
 31
0.0
  0
LINE
  5
9B7F
330
1F
100
AcDbEntity
  8
0
 62
     0
 48
0.5
100
AcDbLine
 10
310.8744401295428
 20
877.2338374728702
 30
0.0
 11
330.8744401295427
 21
877.2338374728702
 31
0.0
  0
LINE
  5
9B80
330
1F
100
AcDbEntity
  8
0
 62
     0
 48
0.5
100
AcDbLine
 10
330.8744401295427
 20
877.2338374728702
 30
0.0
 11
335.8744401295428
 21
877.2338374728702
 31
0.0
  0
LINE
  5
9B81
330
1F
100
AcDbEntity
  8
0
 62
     0
 48
0.5
100
AcDbLine
 10
335.8744401295428
 20
877.2338374728702
 30
0.0
 11
335.8744401295428
 21
992.5396185533948
 31
0.0
  0
LINE
  5
9B99
330
1F
100
AcDbEntity
  8
0
 62
     0
100
AcDbLine
 10
323.3723667087044
 20
974.679328850714
 30
0.0
 11
328.9747490465861
 21
977.9162599817516
 31
0.0
  0
LINE
  5
9B9A
330
1F
100
AcDbEntity
  8
0
 62
     0
100
AcDbLine
 10
328.9768224674244
 20
984.3865309735893
 30
0.0
 11
323.3765135503812
 21
987.619870834389
 31
0.0
  0
LINE
  5
9B9B
330
1F
100
AcDbEntity
  8
0
 62
     0
100
AcDbLine
 10
328.9768224674244
 20
984.3865309735893
 30
0.0
 11
323.3765135503812
 21
987.619870834389
 31
0.0
  0
CIRCLE
  5
9B9C
330
1F
100
AcDbEntity
  8
0
 62
     0
100
AcDbCircle
 10
323.3744401295428
 20
981.1495998425517
 30
0.0
 40
5.601345915277712
  0
LINE
  5
9B9D
330
1F
100
AcDbEntity
  8
0
 62
     0
100
AcDbLine
 10
317.7741312124994
 20
984.3829397033516
 30
0.0
 11
317.7720577916611
 21
977.9126687115139
 31
0.0
  0
LINE
  5
9B9E
330
1F
100
AcDbEntity
  8
0
 62
     0
100
AcDbLine
 10
317.7720577916611
 20
977.9126687115139
 30
0.0
 11
323.3723667087044
 21
974.679328850714
 31
0.0
  0
LINE
  5
9B9F
330
1F
100
AcDbEntity
  8
0
 62
     0
100
AcDbLine
 10
317.7720577916611
 20
977.9126687115139
 30
0.0
 11
323.3723667087044
 21
974.679328850714
 31
0.0
  0
LINE
  5
9BA0
330
1F
100
AcDbEntity
  8
0
 62
     0
100
AcDbLine
 10
323.3765135503812
 20
987.619870834389
 30
0.0
 11
317.7741312124994
 21
984.3829397033516
 31
0.0
  0
LINE
  5
9BA1
330
1F
100
AcDbEntity
  8
0
 62
     0
100
AcDbLine
 10
328.9747490465861
 20
977.9162599817516
 30
0.0
 11
328.9768224674244
 21
984.3865309735893
 31
0.0
  0
CIRCLE
  5
9BA3
330
1F
100
AcDbEntity
  8
0
 62
     0
100
AcDbCircle
 10
323.3744401295428
 20
961.1495998425516
 30
0.0
 40
5.601345915277712
  0
LINE
  5
9BA4
330
1F
100
AcDbEntity
  8
0
 62
     0
100
AcDbLine
 10
323.3723667087044
 20
954.679328850714
 30
0.0
 11
328.9747490465861
 21
957.9162599817516
 31
0.0
  0
LINE
  5
9BA5
330
1F
100
AcDbEntity
  8
0
 62
     0
100
AcDbLine
 10
328.9768224674244
 20
964.3865309735893
 30
0.0
 11
323.3765135503812
 21
967.6198708343891
 31
0.0
  0
LINE
  5
9BA6
330
1F
100
AcDbEntity
  8
0
 62
     0
100
AcDbLine
 10
328.9768224674244
 20
964.3865309735893
 30
0.0
 11
323.3765135503812
 21
967.6198708343891
 31
0.0
  0
LINE
  5
9BA7
330
1F
100
AcDbEntity
  8
0
 62
     0
100
AcDbLine
 10
317.7720577916611
 20
957.912668711514
 30
0.0
 11
323.3723667087044
 21
954.679328850714
 31
0.0
  0
LINE
  5
9BA8
330
1F
100
AcDbEntity
  8
0
 62
     0
100
AcDbLine
 10
317.7720577916611
 20
957.912668711514
 30
0.0
 11
323.3723667087044
 21
954.679328850714
 31
0.0
  0
LINE
  5
9BA9
330
1F
100
AcDbEntity
  8
0
 62
     0
100
AcDbLine
 10
323.3765135503812
 20
967.6198708343891
 30
0.0
 11
317.7741312124994
 21
964.3829397033517
 31
0.0
  0
LINE
  5
9BAA
330
1F
100
AcDbEntity
  8
0
 62
     0
100
AcDbLine
 10
317.7741312124994
 20
964.3829397033517
 30
0.0
 11
317.7720577916611
 21
957.912668711514
 31
0.0
  0
LINE
  5
9BAB
330
1F
100
AcDbEntity
  8
0
 62
     0
100
AcDbLine
 10
328.9747490465861
 20
957.9162599817516
 30
0.0
 11
328.9768224674244
 21
964.3865309735893
 31
0.0
  0
LINE
  5
9BAD
330
1F
100
AcDbEntity
  8
0
 62
     0
 48
0.5
100
AcDbLine
 10
310.8744401295428
 20
950.3451222613476
 30
0.0
 11
319.3744401295428
 21
950.3451222613476
 31
0.0
  0
LINE
  5
9BB1
330
1F
100
AcDbEntity
  8
0
 62
     0
 48
0.5
100
AcDbLine
 10
327.4167501230702
 20
950.3451222613476
 30
0.0
 11
327.4167501230702
 21
888.2062563751016
 31
0.0
  0
ARC
  5
9BBA
330
1F
100
AcDbEntity
  8
0
 62
     0
 48
0.5
100
AcDbCircle
 10
323.3955951263065
 20
893.2182863771087
 30
0.0
 40
6.42573982114267
100
AcDbArc
 50
231.2599048803176
 51
308.7400951196823
  0
ARC
  5
9BBE
330
1F
100
AcDbEntity
  8
0
 62
     0
 48
0.5
100
AcDbCircle
 10
323.3955951263065
 20
945.3330922593405
 30
0.0
 40
6.42573982114267
100
AcDbArc
 50
51.25990488031764
 51
128.7400951196823
  0
LINE
  5
9BBF
330
1F
100
AcDbEntity
  8
0
 62
     0
 48
0.5
100
AcDbLine
 10
327.4167501230702
 20
950.3451222613476
 30
0.0
 11
335.8744401295428
 21
950.3451222613476
 31
0.0
  0
LINE
  5
9BC1
330
1F
100
AcDbEntity
  8
0
 62
     0
 48
0.5
100
AcDbLine
 10
319.3744401295428
 20
950.3451222613476
 30
0.0
 11
319.3744401295428
 21
888.2062563751016
 31
0.0
  0
LINE
  5
9BC2
330
1F
100
AcDbEntity
  8
0
 62
     0
 48
0.5
100
AcDbLine
 10
310.8744401295428
 20
877.2338374728702
 30
0.0
 11
310.8744401295428
 21
882.2338374728701
 31
0.0
  0
LINE
  5
9BC3
330
1F
100
AcDbEntity
  8
0
 62
     0
 48
0.5
100
AcDbLine
 10
310.8744401295428
 20
882.2338374728701
 30
0.0
 11
310.8744401295428
 21
883.2338374728701
 31
0.0
  0
LINE
  5
9BC5
330
1F
100
AcDbEntity
  8
0
 62
     0
 48
0.5
100
AcDbLine
 10
310.8744401295428
 20
884.5091132475918
 30
0.0
 11
335.8744401295428
 21
884.5091132475918
 31
0.0
  0
ARC
  5
9BC9
330
1F
100
AcDbEntity
  8
0
 62
     0
 48
0.5
100
AcDbCircle
 10
335.8744401295428
 20
880.8714753602309
 30
0.0
 40
3.637637887360824
100
AcDbArc
 50
270.0
 51
90.0
  0
ARC
  5
9BCA
330
1F
100
AcDbEntity
  8
0
 62
     0
 48
0.5
100
AcDbCircle
 10
313.0326451431167
 20
880.8714753602309
 30
0.0
 40
3.637637887360824
100
AcDbArc
 50
126.3914291071476
 51
233.6085708928523
  0
LINE
  5
9BCF
330
1F
100
AcDbEntity
  8
0
 62
     0
 48
0.5
100
AcDbLine
 10
319.3744401295428
 20
884.5091132475918
 30
0.0
 11
319.3744401295428
 21
877.2338374728702
 31
0.0
  0
LINE
  5
9BD0
330
1F
100
AcDbEntity
  8
0
 62
     0
 48
0.5
100
AcDbLine
 10
327.4167501230702
 20
884.5091132475918
 30
0.0
 11
327.4167501230702
 21
877.2338374728702
 31
0.0
  0
ARC
  5
9BEA
330
1F
100
AcDbEntity
  8
0
 62
     0
 48
0.5
100
AcDbCircle
 10
195.8120328371089
 20
997.4383133035157
 30
0.0
 40
3.717025226086207
100
AcDbArc
 50
277.730643326948
 51
333.9366938400081
  0
LINE
  5
9BF2
330
1F
100
AcDbEntity
  8
0
 62
     0
 48
0.5
100
AcDbLine
 10
195.8120328371089
 20
994.7212880774296
 30
0.0
 11
196.3120328371089
 21
994.7212880774296
 31
0.0
  0
LINE
  5
9BF3
330
1F
100
AcDbEntity
  8
0
 62
     0
 48
0.5
100
AcDbLine
 10
196.3120328371089
 20
994.7212880774296
 30
0.0
 11
196.3120328371089
 21
993.7550706382328
 31
0.0
  0
LINE
  5
9BF6
330
1F
100
AcDbEntity
  8
0
 62
     0
 48
0.5
100
AcDbLine
 10
196.0620328371089
 20
994.7212880774296
 30
0.0
 11
195.3120328371089
 21
994.7212880774296
 31
0.0
  0
LINE
  5
9BF7
330
1F
100
AcDbEntity
  8
0
 62
     0
 48
0.5
100
AcDbLine
 10
195.3120328371089
 20
994.0708644702736
 30
0.0
 11
195.3120328371089
 21
994.7212880774296
 31
0.0
  0
LINE
  5
9BF9
330
1F
100
AcDbEntity
  8
0
 62
     0
 48
0.5
100
AcDbLine
 10
195.3120328371089
 20
994.0708644702736
 30
0.0
 11
195.3120328371089
 21
993.749301815605
 31
0.0
  0
ARC
  5
9BFA
330
1F
100
AcDbEntity
  8
0
 62
     0
 48
0.5
100
AcDbCircle
 10
195.8120328371089
 20
997.4383133035157
 30
0.0
 40
3.717025226086207
100
AcDbArc
 50
206.0633061599918
 51
262.2693566730528
  0
LINE
  5
9C53
330
1F
100
AcDbEntity
  8
0
 48
0.5
100
AcDbLine
 10
207.6040224946805
 20
986.986203583041
 30
0.0
 11
207.1120328371089
 21
986.986203583041
 31
0.0
  0
LINE
  5
9C54
330
1F
100
AcDbEntity
  8
0
 48
0.5
100
AcDbLine
 10
207.6040224946805
 20
984.1362035830412
 30
0.0
 11
207.1120328371089
 21
984.1362035830412
 31
0.0
  0
LINE
  5
9C55
330
1F
100
AcDbEntity
  8
0
 48
0.5
100
AcDbLine
 10
207.6040224946805
 20
978.6362035830411
 30
0.0
 11
207.1120328371089
 21
978.6362035830411
 31
0.0
  0
LINE
  5
9C56
330
1F
100
AcDbEntity
  8
0
 48
0.5
100
AcDbLine
 10
207.6040224946805
 20
975.7862035830411
 30
0.0
 11
207.1120328371089
 21
975.7862035830411
 31
0.0
  0
LINE
  5
9C57
330
1F
100
AcDbEntity
  8
0
 48
0.5
100
AcDbLine
 10
198.0200431795372
 20
966.9787030158463
 30
0.0
 11
198.5120328371088
 21
966.9787030158463
 31
0.0
  0
LINE
  5
9C58
330
1F
100
AcDbEntity
  8
0
 48
0.5
100
AcDbLine
 10
198.0200431795372
 20
964.1287030158464
 30
0.0
 11
198.5120328371088
 21
964.1287030158464
 31
0.0
  0
LINE
  5
9C61
330
1F
100
AcDbEntity
  8
0
 48
0.5
100
AcDbLine
 10
-16.8088211188483
 20
1191.540751266739
 30
0.0
 11
61.44944800329767
 21
1191.540751266739
 31
0.0
  0
LINE
  5
9C62
330
1F
100
AcDbEntity
  8
0
 48
0.5
100
AcDbLine
 10
-16.8088211188483
 20
1131.540751266739
 30
0.0
 11
61.44944800329767
 21
1131.540751266739
 31
0.0
  0
ARC
  5
9D08
330
1F
100
AcDbEntity
  8
0
 62
     0
 48
0.5
100
AcDbCircle
 10
303.9706030000613
 20
1136.567604193295
 30
0.0
 40
6.42573982114267
100
AcDbArc
 50
231.2599048803176
 51
308.7400951196823
  0
LINE
  5
9D09
330
1F
100
AcDbEntity
  8
0
 62
     0
 48
0.5
100
AcDbLine
 10
291.4494480032976
 20
1120.583155289057
 30
0.0
 11
311.4494480032977
 21
1120.583155289057
 31
0.0
  0
LINE
  5
9D0A
330
1F
100
AcDbEntity
  8
0
 62
     0
 48
0.5
100
AcDbLine
 10
291.4494480032976
 20
1127.858431063778
 30
0.0
 11
316.4494480032976
 21
1127.858431063778
 31
0.0
  0
ARC
  5
9D0D
330
1F
100
AcDbEntity
  8
0
 62
     0
 48
0.5
100
AcDbCircle
 10
293.6076530168715
 20
1124.220793176418
 30
0.0
 40
3.637637887360824
100
AcDbArc
 50
126.3914291071476
 51
233.6085708928523
  0
LINE
  5
9D0E
330
1F
100
AcDbEntity
  8
0
 62
     0
 48
0.5
100
AcDbLine
 10
291.4494480032976
 20
1120.583155289057
 30
0.0
 11
291.4494480032976
 21
1125.583155289057
 31
0.0
  0
LINE
  5
9D0F
330
1F
100
AcDbEntity
  8
0
 62
     0
 48
0.5
100
AcDbLine
 10
291.4494480032976
 20
1125.583155289057
 30
0.0
 11
291.4494480032976
 21
1126.583155289057
 31
0.0
  0
LINE
  5
9D10
330
1F
100
AcDbEntity
  8
0
 62
     0
 48
0.5
100
AcDbLine
 10
299.9494480032976
 20
1127.858431063778
 30
0.0
 11
299.9494480032976
 21
1120.583155289057
 31
0.0
  0
LINE
  5
9D1A
330
1F
100
AcDbEntity
  8
0
 62
     0
 48
0.5
100
AcDbLine
 10
307.9917579968252
 20
1192.264175107458
 30
0.0
 11
307.9917579968252
 21
1131.555574191288
 31
0.0
  0
LINE
  5
9D1B
330
1F
100
AcDbEntity
  8
0
 62
     0
 48
0.5
100
AcDbLine
 10
316.4494480032976
 20
1120.583155289057
 30
0.0
 11
316.4494480032976
 21
1234.567063097432
 31
0.0
  0
ARC
  5
9D1C
330
1F
100
AcDbEntity
  8
0
 62
     0
 48
0.5
100
AcDbCircle
 10
316.4494480032976
 20
1124.220793176418
 30
0.0
 40
3.637637887360824
100
AcDbArc
 50
270.0
 51
90.0
  0
LINE
  5
9D1D
330
1F
100
AcDbEntity
  8
0
 62
     0
 48
0.5
100
AcDbLine
 10
307.9917579968252
 20
1127.858431063778
 30
0.0
 11
307.9917579968252
 21
1120.583155289057
 31
0.0
  0
LINE
  5
9D1E
330
1F
100
AcDbEntity
  8
0
 62
     0
 48
0.5
100
AcDbLine
 10
311.4494480032977
 20
1120.583155289057
 30
0.0
 11
316.4494480032976
 21
1120.583155289057
 31
0.0
  0
LINE
  5
9D7D
330
1F
100
AcDbEntity
  8
0
 48
0.5
100
AcDbLine
 10
558.2398340899476
 20
1191.540751266739
 30
0.0
 11
573.5491399282177
 21
1191.540751266739
 31
0.0
  0
LINE
  5
9D7E
330
1F
100
AcDbEntity
  8
0
 48
0.5
100
AcDbLine
 10
558.2398340899476
 20
1131.540751266739
 30
0.0
 11
573.5491399282178
 21
1131.540751266739
 31
0.0
  0
LINE
  5
9D7F
330
1F
100
AcDbEntity
  8
0
 48
0.5
100
AcDbLine
 10
316.4494480032976
 20
1131.540751266739
 30
0.0
 11
380.5300872232507
 21
1131.540751266739
 31
0.0
  0
LINE
  5
9D80
330
1F
100
AcDbEntity
  8
0
 48
0.5
100
AcDbLine
 10
316.4494480032976
 20
1191.540751266739
 30
0.0
 11
380.5300872232507
 21
1191.540751266739
 31
0.0
  0
LINE
  5
9D81
330
1F
100
AcDbEntity
  8
0
 48
0.5
100
AcDbLine
 10
86.44944800329767
 20
1191.540751266739
 30
0.0
 11
181.0559421751126
 21
1191.540751266739
 31
0.0
  0
LINE
  5
9D82
330
1F
100
AcDbEntity
  8
0
 48
0.5
100
AcDbLine
 10
86.44944800329767
 20
1131.540751266739
 30
0.0
 11
181.0559421751126
 21
1131.540751266739
 31
0.0
  0
MTEXT
  5
9FE4
330
1F
100
AcDbEntity
  8
0
 62
     0
 48
0.3
100
AcDbMText
 10
172.8215413214312
 20
1303.852606273411
 30
0.0
 40
5.0
 41
0.0
 71
     1
 72
     1
  1
%%c1.2コーティングワイヤー(黒色）
 73
     1
 44
1.0
  0
MTEXT
  5
9FE5
102
{ACAD_REACTORS
330
A0FD
102
}
330
1F
100
AcDbEntity
  8
0
 62
     0
 48
0.3
100
AcDbMText
 10
133.3538359781906
 20
1316.919294765737
 30
0.0
 40
5.0
 41
0.0
 71
     1
 72
     1
  1
グリップ付き（ワイヤー長さ調整器）ＳＵＳスプリング
 73
     1
 44
1.0
  0
LEADER
  5
A0FD
330
1F
100
AcDbEntity
  8
0
 62
     0
 48
0.3
100
AcDbLeader
  3
ISO-25
 73
     0
 40
2.0
 41
59.06666666666666
 76
     3
 10
109.0143071839612
 20
1293.852768156013
 30
0.0
 10
129.0020945389202
 20
1313.419294765738
 30
0.0
 10
132.1038359781906
 20
1313.419294765738
 30
0.0
213
0.0
223
-1.5
233
0.0
1001
ACAD
1000
DSTYLE
1002
{
1070
   147
1040
0.625
1070
    77
1070
     0
1002
}
  0
ARC
  5
A240
330
1F
100
AcDbEntity
  8
0
 62
     0
 48
0.3
100
AcDbCircle
 10
119.8166828598543
 20
1293.402768156012
 30
0.0
 40
0.5999999999999944
100
AcDbArc
 50
357.0000000000074
 51
176.9999999999944
  0
ARC
  5
A241
330
1F
100
AcDbEntity
  8
0
 62
     0
 48
0.3
100
AcDbCircle
 10
120.5561264449163
 20
1284.614828250172
 30
0.0
 40
0.5999999999999944
100
AcDbArc
 50
176.9999999999944
 51
356.9999999999943
  0
LINE
  5
A242
330
1F
100
AcDbEntity
  8
0
 62
     0
 48
0.3
100
AcDbLine
 10
119.9553041657691
 20
1284.583426676427
 30
0.0
 11
120.4158605807072
 21
1293.371366582267
 31
0.0
  0
LINE
  5
A243
330
1F
100
AcDbEntity
  8
0
 62
     0
 48
0.3
100
AcDbLine
 10
120.4175051390016
 20
1293.434169729758
 30
0.0
 11
119.9569487240637
 21
1284.646229823918
 31
0.0
  0
LINE
  5
A244
330
1F
100
AcDbEntity
  8
0
 62
     0
 48
0.1
100
AcDbLine
 10
15.55498375007187
 20
1286.989354271278
 30
0.0
 11
-16.62115033219663
 21
1286.989354271278
 31
0.0
  0
LINE
  5
A245
330
1F
100
AcDbEntity
  8
0
 62
     0
 48
0.1
100
AcDbLine
 10
15.55498375007187
 20
1288.189354271279
 30
0.0
 11
-16.62115033219663
 21
1288.189354271279
 31
0.0
  0
ARC
  5
A246
330
1F
100
AcDbEntity
  8
0
 62
     0
 48
0.3
100
AcDbCircle
 10
57.36167086240858
 20
1283.326888344332
 30
0.0
 40
0.5999999999999944
100
AcDbArc
 50
176.9999999999944
 51
357.0000000000074
  0
ARC
  5
A247
330
1F
100
AcDbEntity
  8
0
 62
     0
 48
0.3
100
AcDbCircle
 10
57.82222727734654
 20
1292.114828250172
 30
0.0
 40
0.5999999999999944
100
AcDbArc
 50
356.9999999999943
 51
176.9999999999944
  0
ARC
  5
A248
330
1F
100
AcDbEntity
  8
0
 62
     0
 48
0.3
100
AcDbCircle
 10
26.18589304109355
 20
1291.452952827669
 30
0.0
 40
0.5999999999999944
100
AcDbArc
 50
356.9999999999943
 51
176.9999999999944
  0
ARC
  5
A249
330
1F
100
AcDbEntity
  8
0
 62
     0
 48
0.3
100
AcDbCircle
 10
26.96167086240859
 20
1283.326888344332
 30
0.0
 40
0.5999999999999944
100
AcDbArc
 50
176.9999999999944
 51
357.0000000000074
  0
ARC
  5
A24A
330
1F
100
AcDbEntity
  8
0
 62
     0
 48
0.3
100
AcDbCircle
 10
25.80530755675136
 20
1284.190949179571
 30
0.0
 40
0.5999999999999944
100
AcDbArc
 50
176.9999999999944
 51
357.0000000000074
  0
LINE
  5
A24B
330
1F
100
AcDbEntity
  8
0
 62
     0
 48
0.3
100
AcDbLine
 10
26.82304955649374
 20
1292.146229823918
 30
0.0
 11
26.36249314155588
 21
1283.358289918078
 31
0.0
  0
LINE
  5
A24C
330
1F
100
AcDbEntity
  8
0
 62
     0
 48
0.3
100
AcDbLine
 10
15.55498375007187
 20
1288.189354271279
 30
0.0
 11
23.01859921718039
 21
1288.189354271279
 31
0.0
  0
LINE
  5
A24D
330
1F
100
AcDbEntity
  8
0
 62
     0
 48
0.3
100
AcDbLine
 10
15.55498375007187
 20
1286.989354271278
 30
0.0
 11
22.939987548256
 21
1286.989354271278
 31
0.0
  0
ARC
  5
A24E
330
1F
100
AcDbEntity
  8
0
 62
     0
 48
0.3
100
AcDbCircle
 10
24.95196441326231
 20
1290.836979148277
 30
0.0
 40
0.5999999999999944
100
AcDbArc
 50
356.9999999999943
 51
176.9999999999944
  0
ARC
  5
A24F
330
1F
100
AcDbEntity
  8
0
 62
     0
 48
0.3
100
AcDbCircle
 10
23.71219228335894
 20
1290.109504807111
 30
0.0
 40
0.5999999999999944
100
AcDbArc
 50
356.9999999999943
 51
176.9999999999944
  0
LINE
  5
A250
330
1F
100
AcDbEntity
  8
0
 62
     0
 48
0.3
100
AcDbLine
 10
25.23967510854481
 20
1284.893855791787
 30
0.0
 11
25.23967510854481
 21
1284.893855791787
 31
0.0
  0
LINE
  5
A251
330
1F
100
AcDbEntity
  8
0
 62
     0
 48
0.3
100
AcDbLine
 10
24.08109179674272
 20
1285.684133280445
 30
0.0
 11
24.08109179674272
 21
1285.684133280445
 31
0.0
  0
ARC
  5
A252
330
1F
100
AcDbEntity
  8
0
 62
     0
 48
0.3
100
AcDbCircle
 10
23.48191407589002
 20
1285.715534854191
 30
0.0
 40
0.5999999999999944
100
AcDbArc
 50
176.9999999999944
 51
357.0000000000074
  0
ARC
  5
A253
330
1F
100
AcDbEntity
  8
0
 62
     0
 48
0.3
100
AcDbCircle
 10
24.64049738769199
 20
1284.925257365533
 30
0.0
 40
0.5999999999999944
100
AcDbArc
 50
176.9999999999944
 51
357.0000000000074
  0
LINE
  5
A254
330
1F
100
AcDbEntity
  8
0
 62
     0
 48
0.3
100
AcDbLine
 10
25.58671532024084
 20
1291.484354401415
 30
0.0
 11
25.20448640450911
 21
1284.190992214337
 31
0.0
  0
LINE
  5
A255
330
1F
100
AcDbEntity
  8
0
 62
     0
 48
0.3
100
AcDbLine
 10
25.24005959063492
 20
1284.86976904122
 30
0.0
 11
25.55114213411513
 21
1290.805577574531
 31
0.0
  0
LINE
  5
A256
330
1F
100
AcDbEntity
  8
0
 62
     0
 48
0.3
100
AcDbLine
 10
25.55278669240954
 20
1290.868380722023
 30
0.0
 11
25.23841728615036
 21
1284.86985511075
 31
0.0
  0
LINE
  5
A257
330
1F
100
AcDbEntity
  8
0
 62
     0
 48
0.3
100
AcDbLine
 10
23.11301456250612
 20
1290.140906380857
 30
0.0
 11
22.88109292364765
 21
1285.715577888956
 31
0.0
  0
LINE
  5
A258
330
1F
100
AcDbEntity
  8
0
 62
     0
 48
0.3
100
AcDbLine
 10
24.0843786595218
 20
1285.746850358405
 30
0.0
 11
24.31137000421165
 21
1290.078103233365
 31
0.0
  0
LINE
  5
A259
330
1F
100
AcDbEntity
  8
0
 62
     0
 48
0.3
100
AcDbLine
 10
24.31301456250617
 20
1290.140906380857
 30
0.0
 11
24.08273635503724
 21
1285.746936427936
 31
0.0
  0
LINE
  5
A25A
330
1F
100
AcDbEntity
  8
0
 62
     0
 48
0.3
100
AcDbLine
 10
24.35278669240961
 20
1290.868380722023
 30
0.0
 11
24.04296197132385
 21
1284.956572869748
 31
0.0
  0
ARC
  5
A25B
330
1F
100
AcDbEntity
  8
0
 62
     0
 48
0.3
100
AcDbCircle
 10
41.87222727734649
 20
1292.114828250172
 30
0.0
 40
0.5999999999999944
100
AcDbArc
 50
356.9999999999943
 51
176.9999999999944
  0
ARC
  5
A25C
330
1F
100
AcDbEntity
  8
0
 62
     0
 48
0.3
100
AcDbCircle
 10
41.41167086240864
 20
1283.326888344332
 30
0.0
 40
0.5999999999999944
100
AcDbArc
 50
176.9999999999944
 51
357.0000000000074
  0
ARC
  5
A25D
330
1F
100
AcDbEntity
  8
0
 62
     0
 48
0.3
100
AcDbCircle
 10
34.16167086240864
 20
1283.326888344332
 30
0.0
 40
0.5999999999999944
100
AcDbArc
 50
176.9999999999944
 51
357.0000000000074
  0
ARC
  5
A25E
330
1F
100
AcDbEntity
  8
0
 62
     0
 48
0.3
100
AcDbCircle
 10
34.6222272773465
 20
1292.114828250172
 30
0.0
 40
0.5999999999999944
100
AcDbArc
 50
356.9999999999943
 51
176.9999999999944
  0
ARC
  5
A25F
330
1F
100
AcDbEntity
  8
0
 62
     0
 48
0.3
100
AcDbCircle
 10
33.42222727734656
 20
1292.114828250172
 30
0.0
 40
0.5999999999999944
100
AcDbArc
 50
356.9999999999943
 51
176.9999999999944
  0
LINE
  5
A260
330
1F
100
AcDbEntity
  8
0
 62
     0
 48
0.3
100
AcDbLine
 10
33.5608485832613
 20
1283.295486770586
 30
0.0
 11
34.02140499819927
 21
1292.083426676426
 31
0.0
  0
LINE
  5
A261
330
1F
100
AcDbEntity
  8
0
 62
     0
 48
0.3
100
AcDbLine
 10
34.02304955649379
 20
1292.146229823918
 30
0.0
 11
33.56249314155582
 21
1283.358289918078
 31
0.0
  0
ARC
  5
A262
330
1F
100
AcDbEntity
  8
0
 62
     0
 48
0.3
100
AcDbCircle
 10
32.22222727734652
 20
1292.114828250172
 30
0.0
 40
0.5999999999999944
100
AcDbArc
 50
356.9999999999943
 51
176.9999999999944
  0
LINE
  5
A263
330
1F
100
AcDbEntity
  8
0
 62
     0
 48
0.3
100
AcDbLine
 10
31.16084858326132
 20
1283.295486770586
 30
0.0
 11
31.16084858326132
 21
1283.295486770586
 31
0.0
  0
LINE
  5
A264
330
1F
100
AcDbEntity
  8
0
 62
     0
 48
0.3
100
AcDbLine
 10
32.36084858326137
 20
1283.295486770586
 30
0.0
 11
32.36084858326137
 21
1283.295486770586
 31
0.0
  0
LINE
  5
A265
330
1F
100
AcDbEntity
  8
0
 62
     0
 48
0.3
100
AcDbLine
 10
33.5608485832613
 20
1283.295486770586
 30
0.0
 11
33.5608485832613
 21
1283.295486770586
 31
0.0
  0
ARC
  5
A266
330
1F
100
AcDbEntity
  8
0
 62
     0
 48
0.3
100
AcDbCircle
 10
31.76167086240855
 20
1283.326888344332
 30
0.0
 40
0.5999999999999944
100
AcDbArc
 50
176.9999999999944
 51
357.0000000000074
  0
ARC
  5
A267
330
1F
100
AcDbEntity
  8
0
 62
     0
 48
0.3
100
AcDbCircle
 10
32.96167086240859
 20
1283.326888344332
 30
0.0
 40
0.5999999999999944
100
AcDbArc
 50
176.9999999999944
 51
357.0000000000074
  0
LINE
  5
A268
330
1F
100
AcDbEntity
  8
0
 62
     0
 48
0.3
100
AcDbLine
 10
31.16084858326132
 20
1283.295486770586
 30
0.0
 11
31.62140499819929
 21
1292.083426676426
 31
0.0
  0
LINE
  5
A269
330
1F
100
AcDbEntity
  8
0
 62
     0
 48
0.3
100
AcDbLine
 10
31.6230495564937
 20
1292.146229823918
 30
0.0
 11
31.16249314155584
 21
1283.358289918078
 31
0.0
  0
LINE
  5
A26A
330
1F
100
AcDbEntity
  8
0
 62
     0
 48
0.3
100
AcDbLine
 10
32.36084858326137
 20
1283.295486770586
 30
0.0
 11
32.82140499819922
 21
1292.083426676426
 31
0.0
  0
LINE
  5
A26B
330
1F
100
AcDbEntity
  8
0
 62
     0
 48
0.3
100
AcDbLine
 10
32.82304955649374
 20
1292.146229823918
 30
0.0
 11
32.36249314155589
 21
1283.358289918078
 31
0.0
  0
ARC
  5
A26C
330
1F
100
AcDbEntity
  8
0
 62
     0
 48
0.3
100
AcDbCircle
 10
29.82222727734654
 20
1292.114828250172
 30
0.0
 40
0.5999999999999944
100
AcDbArc
 50
356.9999999999943
 51
176.9999999999944
  0
ARC
  5
A26D
330
1F
100
AcDbEntity
  8
0
 62
     0
 48
0.3
100
AcDbCircle
 10
28.6222272773465
 20
1292.114828250172
 30
0.0
 40
0.5999999999999944
100
AcDbArc
 50
356.9999999999943
 51
176.9999999999944
  0
ARC
  5
A26E
330
1F
100
AcDbEntity
  8
0
 62
     0
 48
0.3
100
AcDbCircle
 10
27.42222727734656
 20
1292.114828250172
 30
0.0
 40
0.5999999999999944
100
AcDbArc
 50
356.9999999999943
 51
176.9999999999944
  0
ARC
  5
A26F
330
1F
100
AcDbEntity
  8
0
 62
     0
 48
0.3
100
AcDbCircle
 10
29.36167086240857
 20
1283.326888344332
 30
0.0
 40
0.5999999999999944
100
AcDbArc
 50
176.9999999999944
 51
357.0000000000074
  0
LINE
  5
A270
330
1F
100
AcDbEntity
  8
0
 62
     0
 48
0.3
100
AcDbLine
 10
29.96084858326128
 20
1283.295486770586
 30
0.0
 11
29.96084858326128
 21
1283.295486770586
 31
0.0
  0
LINE
  5
A271
330
1F
100
AcDbEntity
  8
0
 62
     0
 48
0.3
100
AcDbLine
 10
26.40448527760418
 20
1284.159547605825
 30
0.0
 11
26.40448527760418
 21
1284.159547605825
 31
0.0
  0
LINE
  5
A272
330
1F
100
AcDbEntity
  8
0
 62
     0
 48
0.3
100
AcDbLine
 10
27.5608485832613
 20
1283.295486770586
 30
0.0
 11
27.5608485832613
 21
1283.295486770586
 31
0.0
  0
LINE
  5
A273
330
1F
100
AcDbEntity
  8
0
 62
     0
 48
0.3
100
AcDbLine
 10
28.76084858326135
 20
1283.295486770586
 30
0.0
 11
28.76084858326135
 21
1283.295486770586
 31
0.0
  0
ARC
  5
A274
330
1F
100
AcDbEntity
  8
0
 62
     0
 48
0.3
100
AcDbCircle
 10
28.16167086240864
 20
1283.326888344332
 30
0.0
 40
0.5999999999999944
100
AcDbArc
 50
176.9999999999944
 51
357.0000000000074
  0
LINE
  5
A275
330
1F
100
AcDbEntity
  8
0
 62
     0
 48
0.3
100
AcDbLine
 10
29.96084858326128
 20
1283.295486770586
 30
0.0
 11
30.42140499819925
 21
1292.083426676426
 31
0.0
  0
LINE
  5
A276
330
1F
100
AcDbEntity
  8
0
 62
     0
 48
0.3
100
AcDbLine
 10
30.42304955649376
 20
1292.146229823918
 30
0.0
 11
29.9624931415558
 21
1283.358289918078
 31
0.0
  0
LINE
  5
A277
330
1F
100
AcDbEntity
  8
0
 62
     0
 48
0.3
100
AcDbLine
 10
26.40448527760418
 20
1284.159547605825
 30
0.0
 11
26.78507076194637
 21
1291.421551253923
 31
0.0
  0
LINE
  5
A278
330
1F
100
AcDbEntity
  8
0
 62
     0
 48
0.3
100
AcDbLine
 10
26.78671532024077
 20
1291.484354401415
 30
0.0
 11
26.40051960713856
 21
1284.115301211495
 31
0.0
  0
LINE
  5
A279
330
1F
100
AcDbEntity
  8
0
 62
     0
 48
0.3
100
AcDbLine
 10
28.76084858326135
 20
1283.295486770586
 30
0.0
 11
29.2214049981992
 21
1292.083426676426
 31
0.0
  0
LINE
  5
A27A
330
1F
100
AcDbEntity
  8
0
 62
     0
 48
0.3
100
AcDbLine
 10
29.22304955649372
 20
1292.146229823918
 30
0.0
 11
28.76249314155586
 21
1283.358289918078
 31
0.0
  0
LINE
  5
A27B
330
1F
100
AcDbEntity
  8
0
 62
     0
 48
0.3
100
AcDbLine
 10
27.5608485832613
 20
1283.295486770586
 30
0.0
 11
28.02140499819927
 21
1292.083426676426
 31
0.0
  0
LINE
  5
A27C
330
1F
100
AcDbEntity
  8
0
 62
     0
 48
0.3
100
AcDbLine
 10
28.02304955649379
 20
1292.146229823918
 30
0.0
 11
27.56249314155581
 21
1283.358289918078
 31
0.0
  0
ARC
  5
A27D
330
1F
100
AcDbEntity
  8
0
 62
     0
 48
0.3
100
AcDbCircle
 10
31.02222727734647
 20
1292.114828250172
 30
0.0
 40
0.5999999999999944
100
AcDbArc
 50
356.9999999999943
 51
176.9999999999944
  0
ARC
  5
A27E
330
1F
100
AcDbEntity
  8
0
 62
     0
 48
0.3
100
AcDbCircle
 10
30.56167086240861
 20
1283.326888344332
 30
0.0
 40
0.5999999999999944
100
AcDbArc
 50
176.9999999999944
 51
357.0000000000074
  0
ARC
  5
A27F
330
1F
100
AcDbEntity
  8
0
 62
     0
 48
0.3
100
AcDbCircle
 10
37.02222727734647
 20
1292.114828250172
 30
0.0
 40
0.5999999999999944
100
AcDbArc
 50
356.9999999999943
 51
176.9999999999944
  0
ARC
  5
A280
330
1F
100
AcDbEntity
  8
0
 62
     0
 48
0.3
100
AcDbCircle
 10
38.22222727734652
 20
1292.114828250172
 30
0.0
 40
0.5999999999999944
100
AcDbArc
 50
356.9999999999943
 51
176.9999999999944
  0
ARC
  5
A281
330
1F
100
AcDbEntity
  8
0
 62
     0
 48
0.3
100
AcDbCircle
 10
35.82222727734654
 20
1292.114828250172
 30
0.0
 40
0.5999999999999944
100
AcDbArc
 50
356.9999999999943
 51
176.9999999999944
  0
ARC
  5
A282
330
1F
100
AcDbEntity
  8
0
 62
     0
 48
0.3
100
AcDbCircle
 10
40.62222727734649
 20
1292.114828250172
 30
0.0
 40
0.5999999999999944
100
AcDbArc
 50
356.9999999999943
 51
176.9999999999944
  0
ARC
  5
A283
330
1F
100
AcDbEntity
  8
0
 62
     0
 48
0.3
100
AcDbCircle
 10
39.42222727734656
 20
1292.114828250172
 30
0.0
 40
0.5999999999999944
100
AcDbArc
 50
356.9999999999943
 51
176.9999999999944
  0
LINE
  5
A284
330
1F
100
AcDbEntity
  8
0
 62
     0
 48
0.3
100
AcDbLine
 10
34.76084858326135
 20
1283.295486770586
 30
0.0
 11
34.76084858326135
 21
1283.295486770586
 31
0.0
  0
LINE
  5
A285
330
1F
100
AcDbEntity
  8
0
 62
     0
 48
0.3
100
AcDbLine
 10
35.96084858326128
 20
1283.295486770586
 30
0.0
 11
35.96084858326128
 21
1283.295486770586
 31
0.0
  0
LINE
  5
A286
330
1F
100
AcDbEntity
  8
0
 62
     0
 48
0.3
100
AcDbLine
 10
37.16084858326132
 20
1283.295486770586
 30
0.0
 11
37.16084858326132
 21
1283.295486770586
 31
0.0
  0
LINE
  5
A287
330
1F
100
AcDbEntity
  8
0
 62
     0
 48
0.3
100
AcDbLine
 10
38.36084858326137
 20
1283.295486770586
 30
0.0
 11
38.36084858326137
 21
1283.295486770586
 31
0.0
  0
LINE
  5
A288
330
1F
100
AcDbEntity
  8
0
 62
     0
 48
0.3
100
AcDbLine
 10
39.5608485832613
 20
1283.295486770586
 30
0.0
 11
39.5608485832613
 21
1283.295486770586
 31
0.0
  0
ARC
  5
A289
330
1F
100
AcDbEntity
  8
0
 62
     0
 48
0.3
100
AcDbCircle
 10
36.56167086240861
 20
1283.326888344332
 30
0.0
 40
0.5999999999999944
100
AcDbArc
 50
176.9999999999944
 51
357.0000000000074
  0
ARC
  5
A28A
330
1F
100
AcDbEntity
  8
0
 62
     0
 48
0.3
100
AcDbCircle
 10
37.76167086240855
 20
1283.326888344332
 30
0.0
 40
0.5999999999999944
100
AcDbArc
 50
176.9999999999944
 51
357.0000000000074
  0
ARC
  5
A28B
330
1F
100
AcDbEntity
  8
0
 62
     0
 48
0.3
100
AcDbCircle
 10
38.96167086240859
 20
1283.326888344332
 30
0.0
 40
0.5999999999999944
100
AcDbArc
 50
176.9999999999944
 51
357.0000000000074
  0
ARC
  5
A28C
330
1F
100
AcDbEntity
  8
0
 62
     0
 48
0.3
100
AcDbCircle
 10
35.36167086240857
 20
1283.326888344332
 30
0.0
 40
0.5999999999999944
100
AcDbArc
 50
176.9999999999944
 51
357.0000000000074
  0
LINE
  5
A28D
330
1F
100
AcDbEntity
  8
0
 62
     0
 48
0.3
100
AcDbLine
 10
40.8108485832613
 20
1283.295486770586
 30
0.0
 11
40.8108485832613
 21
1283.295486770586
 31
0.0
  0
ARC
  5
A28E
330
1F
100
AcDbEntity
  8
0
 62
     0
 48
0.3
100
AcDbCircle
 10
40.16167086240864
 20
1283.326888344332
 30
0.0
 40
0.5999999999999944
100
AcDbArc
 50
176.9999999999944
 51
357.0000000000074
  0
LINE
  5
A28F
330
1F
100
AcDbEntity
  8
0
 62
     0
 48
0.3
100
AcDbLine
 10
34.76084858326135
 20
1283.295486770586
 30
0.0
 11
35.2214049981992
 21
1292.083426676426
 31
0.0
  0
LINE
  5
A290
330
1F
100
AcDbEntity
  8
0
 62
     0
 48
0.3
100
AcDbLine
 10
35.22304955649372
 20
1292.146229823918
 30
0.0
 11
34.76249314155586
 21
1283.358289918078
 31
0.0
  0
LINE
  5
A291
330
1F
100
AcDbEntity
  8
0
 62
     0
 48
0.3
100
AcDbLine
 10
35.96084858326128
 20
1283.295486770586
 30
0.0
 11
36.42140499819925
 21
1292.083426676426
 31
0.0
  0
LINE
  5
A292
330
1F
100
AcDbEntity
  8
0
 62
     0
 48
0.3
100
AcDbLine
 10
36.42304955649376
 20
1292.146229823918
 30
0.0
 11
35.9624931415558
 21
1283.358289918078
 31
0.0
  0
LINE
  5
A293
330
1F
100
AcDbEntity
  8
0
 62
     0
 48
0.3
100
AcDbLine
 10
37.16084858326132
 20
1283.295486770586
 30
0.0
 11
37.62140499819929
 21
1292.083426676426
 31
0.0
  0
LINE
  5
A294
330
1F
100
AcDbEntity
  8
0
 62
     0
 48
0.3
100
AcDbLine
 10
37.62304955649369
 20
1292.146229823918
 30
0.0
 11
37.16249314155584
 21
1283.358289918078
 31
0.0
  0
LINE
  5
A295
330
1F
100
AcDbEntity
  8
0
 62
     0
 48
0.3
100
AcDbLine
 10
38.36084858326137
 20
1283.295486770586
 30
0.0
 11
38.82140499819922
 21
1292.083426676426
 31
0.0
  0
LINE
  5
A296
330
1F
100
AcDbEntity
  8
0
 62
     0
 48
0.3
100
AcDbLine
 10
38.82304955649374
 20
1292.146229823918
 30
0.0
 11
38.36249314155589
 21
1283.358289918078
 31
0.0
  0
LINE
  5
A297
330
1F
100
AcDbEntity
  8
0
 62
     0
 48
0.3
100
AcDbLine
 10
41.27304955649378
 20
1292.146229823918
 30
0.0
 11
40.81249314155582
 21
1283.358289918078
 31
0.0
  0
LINE
  5
A298
330
1F
100
AcDbEntity
  8
0
 62
     0
 48
0.3
100
AcDbLine
 10
40.8108485832613
 20
1283.295486770586
 30
0.0
 11
41.27140499819927
 21
1292.083426676426
 31
0.0
  0
LINE
  5
A299
330
1F
100
AcDbEntity
  8
0
 62
     0
 48
0.3
100
AcDbLine
 10
39.5608485832613
 20
1283.295486770586
 30
0.0
 11
40.02140499819927
 21
1292.083426676426
 31
0.0
  0
LINE
  5
A29A
330
1F
100
AcDbEntity
  8
0
 62
     0
 48
0.3
100
AcDbLine
 10
40.02304955649378
 20
1292.146229823918
 30
0.0
 11
39.56249314155582
 21
1283.358289918078
 31
0.0
  0
ARC
  5
A29B
330
1F
100
AcDbEntity
  8
0
 62
     0
 48
0.3
100
AcDbCircle
 10
49.37222727734649
 20
1292.114828250172
 30
0.0
 40
0.5999999999999944
100
AcDbArc
 50
356.9999999999943
 51
176.9999999999944
  0
ARC
  5
A29C
330
1F
100
AcDbEntity
  8
0
 62
     0
 48
0.3
100
AcDbCircle
 10
50.16167086240864
 20
1283.326888344332
 30
0.0
 40
0.5999999999999944
100
AcDbArc
 50
176.9999999999944
 51
357.0000000000074
  0
LINE
  5
A29D
330
1F
100
AcDbEntity
  8
0
 62
     0
 48
0.3
100
AcDbLine
 10
50.02304955649378
 20
1292.146229823918
 30
0.0
 11
49.56249314155582
 21
1283.358289918078
 31
0.0
  0
LINE
  5
A29E
330
1F
100
AcDbEntity
  8
0
 62
     0
 48
0.3
100
AcDbLine
 10
49.5608485832613
 20
1283.295486770586
 30
0.0
 11
50.02140499819927
 21
1292.083426676426
 31
0.0
  0
ARC
  5
A29F
330
1F
100
AcDbEntity
  8
0
 62
     0
 48
0.3
100
AcDbCircle
 10
48.12222727734649
 20
1292.114828250172
 30
0.0
 40
0.5999999999999944
100
AcDbArc
 50
356.9999999999943
 51
176.9999999999944
  0
ARC
  5
A2A0
330
1F
100
AcDbEntity
  8
0
 62
     0
 48
0.3
100
AcDbCircle
 10
47.66167086240864
 20
1283.326888344332
 30
0.0
 40
0.5999999999999944
100
AcDbArc
 50
176.9999999999944
 51
357.0000000000074
  0
LINE
  5
A2A1
330
1F
100
AcDbEntity
  8
0
 62
     0
 48
0.3
100
AcDbLine
 10
49.5608485832613
 20
1283.295486770586
 30
0.0
 11
49.5608485832613
 21
1283.295486770586
 31
0.0
  0
LINE
  5
A2A2
330
1F
100
AcDbEntity
  8
0
 62
     0
 48
0.3
100
AcDbLine
 10
48.3108485832613
 20
1283.295486770586
 30
0.0
 11
48.3108485832613
 21
1283.295486770586
 31
0.0
  0
LINE
  5
A2A3
330
1F
100
AcDbEntity
  8
0
 62
     0
 48
0.3
100
AcDbLine
 10
47.0608485832613
 20
1283.295486770586
 30
0.0
 11
47.0608485832613
 21
1283.295486770586
 31
0.0
  0
ARC
  5
A2A4
330
1F
100
AcDbEntity
  8
0
 62
     0
 48
0.3
100
AcDbCircle
 10
48.91167086240864
 20
1283.326888344332
 30
0.0
 40
0.5999999999999944
100
AcDbArc
 50
176.9999999999944
 51
357.0000000000074
  0
LINE
  5
A2A5
330
1F
100
AcDbEntity
  8
0
 62
     0
 48
0.3
100
AcDbLine
 10
48.77304955649378
 20
1292.146229823918
 30
0.0
 11
48.31249314155582
 21
1283.358289918078
 31
0.0
  0
LINE
  5
A2A6
330
1F
100
AcDbEntity
  8
0
 62
     0
 48
0.3
100
AcDbLine
 10
48.3108485832613
 20
1283.295486770586
 30
0.0
 11
48.77140499819927
 21
1292.083426676426
 31
0.0
  0
LINE
  5
A2A7
330
1F
100
AcDbEntity
  8
0
 62
     0
 48
0.3
100
AcDbLine
 10
47.52304955649378
 20
1292.146229823918
 30
0.0
 11
47.06249314155582
 21
1283.358289918078
 31
0.0
  0
LINE
  5
A2A8
330
1F
100
AcDbEntity
  8
0
 62
     0
 48
0.3
100
AcDbLine
 10
47.0608485832613
 20
1283.295486770586
 30
0.0
 11
47.52140499819927
 21
1292.083426676426
 31
0.0
  0
ARC
  5
A2A9
330
1F
100
AcDbEntity
  8
0
 62
     0
 48
0.3
100
AcDbCircle
 10
45.62222727734649
 20
1292.114828250172
 30
0.0
 40
0.5999999999999944
100
AcDbArc
 50
356.9999999999943
 51
176.9999999999944
  0
ARC
  5
A2AA
330
1F
100
AcDbEntity
  8
0
 62
     0
 48
0.3
100
AcDbCircle
 10
45.16167086240864
 20
1283.326888344332
 30
0.0
 40
0.5999999999999944
100
AcDbArc
 50
176.9999999999944
 51
357.0000000000074
  0
ARC
  5
A2AB
330
1F
100
AcDbEntity
  8
0
 62
     0
 48
0.3
100
AcDbCircle
 10
43.12222727734649
 20
1292.114828250172
 30
0.0
 40
0.5999999999999944
100
AcDbArc
 50
356.9999999999943
 51
176.9999999999944
  0
ARC
  5
A2AC
330
1F
100
AcDbEntity
  8
0
 62
     0
 48
0.3
100
AcDbCircle
 10
44.37222727734649
 20
1292.114828250172
 30
0.0
 40
0.5999999999999944
100
AcDbArc
 50
356.9999999999943
 51
176.9999999999944
  0
LINE
  5
A2AD
330
1F
100
AcDbEntity
  8
0
 62
     0
 48
0.3
100
AcDbLine
 10
43.3108485832613
 20
1283.295486770586
 30
0.0
 11
43.3108485832613
 21
1283.295486770586
 31
0.0
  0
LINE
  5
A2AE
330
1F
100
AcDbEntity
  8
0
 62
     0
 48
0.3
100
AcDbLine
 10
44.5608485832613
 20
1283.295486770586
 30
0.0
 11
44.5608485832613
 21
1283.295486770586
 31
0.0
  0
ARC
  5
A2AF
330
1F
100
AcDbEntity
  8
0
 62
     0
 48
0.3
100
AcDbCircle
 10
43.91167086240864
 20
1283.326888344332
 30
0.0
 40
0.5999999999999944
100
AcDbArc
 50
176.9999999999944
 51
357.0000000000074
  0
LINE
  5
A2B0
330
1F
100
AcDbEntity
  8
0
 62
     0
 48
0.3
100
AcDbLine
 10
42.0608485832613
 20
1283.295486770586
 30
0.0
 11
42.0608485832613
 21
1283.295486770586
 31
0.0
  0
ARC
  5
A2B1
330
1F
100
AcDbEntity
  8
0
 62
     0
 48
0.3
100
AcDbCircle
 10
42.66167086240864
 20
1283.326888344332
 30
0.0
 40
0.5999999999999944
100
AcDbArc
 50
176.9999999999944
 51
357.0000000000074
  0
LINE
  5
A2B2
330
1F
100
AcDbEntity
  8
0
 62
     0
 48
0.3
100
AcDbLine
 10
43.77304955649378
 20
1292.146229823918
 30
0.0
 11
43.31249314155582
 21
1283.358289918078
 31
0.0
  0
LINE
  5
A2B3
330
1F
100
AcDbEntity
  8
0
 62
     0
 48
0.3
100
AcDbLine
 10
43.3108485832613
 20
1283.295486770586
 30
0.0
 11
43.77140499819927
 21
1292.083426676426
 31
0.0
  0
LINE
  5
A2B4
330
1F
100
AcDbEntity
  8
0
 62
     0
 48
0.3
100
AcDbLine
 10
42.52304955649378
 20
1292.146229823918
 30
0.0
 11
42.06249314155582
 21
1283.358289918078
 31
0.0
  0
LINE
  5
A2B5
330
1F
100
AcDbEntity
  8
0
 62
     0
 48
0.3
100
AcDbLine
 10
42.0608485832613
 20
1283.295486770586
 30
0.0
 11
42.52140499819927
 21
1292.083426676426
 31
0.0
  0
LINE
  5
A2B6
330
1F
100
AcDbEntity
  8
0
 62
     0
 48
0.3
100
AcDbLine
 10
45.02304955649378
 20
1292.146229823918
 30
0.0
 11
44.56249314155582
 21
1283.358289918078
 31
0.0
  0
LINE
  5
A2B7
330
1F
100
AcDbEntity
  8
0
 62
     0
 48
0.3
100
AcDbLine
 10
44.5608485832613
 20
1283.295486770586
 30
0.0
 11
45.02140499819927
 21
1292.083426676426
 31
0.0
  0
LINE
  5
A2B8
330
1F
100
AcDbEntity
  8
0
 62
     0
 48
0.3
100
AcDbLine
 10
45.8108485832613
 20
1283.295486770586
 30
0.0
 11
45.8108485832613
 21
1283.295486770586
 31
0.0
  0
LINE
  5
A2B9
330
1F
100
AcDbEntity
  8
0
 62
     0
 48
0.3
100
AcDbLine
 10
46.27304955649378
 20
1292.146229823918
 30
0.0
 11
45.81249314155582
 21
1283.358289918078
 31
0.0
  0
LINE
  5
A2BA
330
1F
100
AcDbEntity
  8
0
 62
     0
 48
0.3
100
AcDbLine
 10
45.8108485832613
 20
1283.295486770586
 30
0.0
 11
46.27140499819927
 21
1292.083426676426
 31
0.0
  0
ARC
  5
A2BB
330
1F
100
AcDbEntity
  8
0
 62
     0
 48
0.3
100
AcDbCircle
 10
46.87222727734649
 20
1292.114828250172
 30
0.0
 40
0.5999999999999944
100
AcDbArc
 50
356.9999999999943
 51
176.9999999999944
  0
ARC
  5
A2BC
330
1F
100
AcDbEntity
  8
0
 62
     0
 48
0.3
100
AcDbCircle
 10
46.41167086240864
 20
1283.326888344332
 30
0.0
 40
0.5999999999999944
100
AcDbArc
 50
176.9999999999944
 51
357.0000000000074
  0
ARC
  5
A2BD
330
1F
100
AcDbEntity
  8
0
 62
     0
 48
0.3
100
AcDbCircle
 10
56.6222272773465
 20
1292.114828250172
 30
0.0
 40
0.5999999999999944
100
AcDbArc
 50
356.9999999999943
 51
176.9999999999944
  0
LINE
  5
A2BE
330
1F
100
AcDbEntity
  8
0
 62
     0
 48
0.3
100
AcDbLine
 10
56.76084858326134
 20
1283.295486770586
 30
0.0
 11
57.22140499819921
 21
1292.083426676426
 31
0.0
  0
LINE
  5
A2BF
330
1F
100
AcDbEntity
  8
0
 62
     0
 48
0.3
100
AcDbLine
 10
57.22304955649372
 20
1292.146229823918
 30
0.0
 11
56.76249314155587
 21
1283.358289918078
 31
0.0
  0
ARC
  5
A2C0
330
1F
100
AcDbEntity
  8
0
 62
     0
 48
0.3
100
AcDbCircle
 10
55.42222727734657
 20
1292.114828250172
 30
0.0
 40
0.5999999999999944
100
AcDbArc
 50
356.9999999999943
 51
176.9999999999944
  0
ARC
  5
A2C1
330
1F
100
AcDbEntity
  8
0
 62
     0
 48
0.3
100
AcDbCircle
 10
53.02222727734648
 20
1292.114828250172
 30
0.0
 40
0.5999999999999944
100
AcDbArc
 50
356.9999999999943
 51
176.9999999999944
  0
ARC
  5
A2C2
330
1F
100
AcDbEntity
  8
0
 62
     0
 48
0.3
100
AcDbCircle
 10
50.62222727734649
 20
1292.114828250172
 30
0.0
 40
0.5999999999999944
100
AcDbArc
 50
356.9999999999943
 51
176.9999999999944
  0
ARC
  5
A2C3
330
1F
100
AcDbEntity
  8
0
 62
     0
 48
0.3
100
AcDbCircle
 10
51.82222727734654
 20
1292.114828250172
 30
0.0
 40
0.5999999999999944
100
AcDbArc
 50
356.9999999999943
 51
176.9999999999944
  0
ARC
  5
A2C4
330
1F
100
AcDbEntity
  8
0
 62
     0
 48
0.3
100
AcDbCircle
 10
54.22222727734652
 20
1292.114828250172
 30
0.0
 40
0.5999999999999944
100
AcDbArc
 50
356.9999999999943
 51
176.9999999999944
  0
LINE
  5
A2C5
330
1F
100
AcDbEntity
  8
0
 62
     0
 48
0.3
100
AcDbLine
 10
54.36084858326137
 20
1283.295486770586
 30
0.0
 11
54.36084858326137
 21
1283.295486770586
 31
0.0
  0
LINE
  5
A2C6
330
1F
100
AcDbEntity
  8
0
 62
     0
 48
0.3
100
AcDbLine
 10
55.5608485832613
 20
1283.295486770586
 30
0.0
 11
55.5608485832613
 21
1283.295486770586
 31
0.0
  0
ARC
  5
A2C7
330
1F
100
AcDbEntity
  8
0
 62
     0
 48
0.3
100
AcDbCircle
 10
54.96167086240859
 20
1283.326888344332
 30
0.0
 40
0.5999999999999944
100
AcDbArc
 50
176.9999999999944
 51
357.0000000000074
  0
LINE
  5
A2C8
330
1F
100
AcDbEntity
  8
0
 62
     0
 48
0.3
100
AcDbLine
 10
56.76084858326134
 20
1283.295486770586
 30
0.0
 11
56.76084858326134
 21
1283.295486770586
 31
0.0
  0
ARC
  5
A2C9
330
1F
100
AcDbEntity
  8
0
 62
     0
 48
0.3
100
AcDbCircle
 10
56.16167086240864
 20
1283.326888344332
 30
0.0
 40
0.5999999999999944
100
AcDbArc
 50
176.9999999999944
 51
357.0000000000074
  0
LINE
  5
A2CA
330
1F
100
AcDbEntity
  8
0
 62
     0
 48
0.3
100
AcDbLine
 10
50.76084858326135
 20
1283.295486770586
 30
0.0
 11
50.76084858326135
 21
1283.295486770586
 31
0.0
  0
LINE
  5
A2CB
330
1F
100
AcDbEntity
  8
0
 62
     0
 48
0.3
100
AcDbLine
 10
51.96084858326128
 20
1283.295486770586
 30
0.0
 11
51.96084858326128
 21
1283.295486770586
 31
0.0
  0
ARC
  5
A2CC
330
1F
100
AcDbEntity
  8
0
 62
     0
 48
0.3
100
AcDbCircle
 10
51.36167086240857
 20
1283.326888344332
 30
0.0
 40
0.5999999999999944
100
AcDbArc
 50
176.9999999999944
 51
357.0000000000074
  0
LINE
  5
A2CD
330
1F
100
AcDbEntity
  8
0
 62
     0
 48
0.3
100
AcDbLine
 10
53.16084858326132
 20
1283.295486770586
 30
0.0
 11
53.16084858326132
 21
1283.295486770586
 31
0.0
  0
ARC
  5
A2CE
330
1F
100
AcDbEntity
  8
0
 62
     0
 48
0.3
100
AcDbCircle
 10
52.56167086240862
 20
1283.326888344332
 30
0.0
 40
0.5999999999999944
100
AcDbArc
 50
176.9999999999944
 51
357.0000000000074
  0
ARC
  5
A2CF
330
1F
100
AcDbEntity
  8
0
 62
     0
 48
0.3
100
AcDbCircle
 10
53.76167086240855
 20
1283.326888344332
 30
0.0
 40
0.5999999999999944
100
AcDbArc
 50
176.9999999999944
 51
357.0000000000074
  0
LINE
  5
A2D0
330
1F
100
AcDbEntity
  8
0
 62
     0
 48
0.3
100
AcDbLine
 10
50.76084858326135
 20
1283.295486770586
 30
0.0
 11
51.2214049981992
 21
1292.083426676426
 31
0.0
  0
LINE
  5
A2D1
330
1F
100
AcDbEntity
  8
0
 62
     0
 48
0.3
100
AcDbLine
 10
51.22304955649372
 20
1292.146229823918
 30
0.0
 11
50.76249314155586
 21
1283.358289918078
 31
0.0
  0
LINE
  5
A2D2
330
1F
100
AcDbEntity
  8
0
 62
     0
 48
0.3
100
AcDbLine
 10
53.16084858326132
 20
1283.295486770586
 30
0.0
 11
53.62140499819929
 21
1292.083426676426
 31
0.0
  0
LINE
  5
A2D3
330
1F
100
AcDbEntity
  8
0
 62
     0
 48
0.3
100
AcDbLine
 10
53.6230495564937
 20
1292.146229823918
 30
0.0
 11
53.16249314155584
 21
1283.358289918078
 31
0.0
  0
LINE
  5
A2D4
330
1F
100
AcDbEntity
  8
0
 62
     0
 48
0.3
100
AcDbLine
 10
54.36084858326137
 20
1283.295486770586
 30
0.0
 11
54.82140499819923
 21
1292.083426676426
 31
0.0
  0
LINE
  5
A2D5
330
1F
100
AcDbEntity
  8
0
 62
     0
 48
0.3
100
AcDbLine
 10
54.82304955649374
 20
1292.146229823918
 30
0.0
 11
54.36249314155588
 21
1283.358289918078
 31
0.0
  0
LINE
  5
A2D6
330
1F
100
AcDbEntity
  8
0
 62
     0
 48
0.3
100
AcDbLine
 10
51.96084858326128
 20
1283.295486770586
 30
0.0
 11
52.42140499819925
 21
1292.083426676426
 31
0.0
  0
LINE
  5
A2D7
330
1F
100
AcDbEntity
  8
0
 62
     0
 48
0.3
100
AcDbLine
 10
52.42304955649377
 20
1292.146229823918
 30
0.0
 11
51.96249314155579
 21
1283.358289918078
 31
0.0
  0
LINE
  5
A2D8
330
1F
100
AcDbEntity
  8
0
 62
     0
 48
0.3
100
AcDbLine
 10
55.5608485832613
 20
1283.295486770586
 30
0.0
 11
56.02140499819928
 21
1292.083426676426
 31
0.0
  0
LINE
  5
A2D9
330
1F
100
AcDbEntity
  8
0
 62
     0
 48
0.3
100
AcDbLine
 10
56.02304955649379
 20
1292.146229823918
 30
0.0
 11
55.56249314155582
 21
1283.358289918078
 31
0.0
  0
ARC
  5
A2DA
330
1F
100
AcDbEntity
  8
0
 62
     0
 48
0.3
100
AcDbCircle
 10
89.41668285985429
 20
1293.402768156012
 30
0.0
 40
0.5999999999999944
100
AcDbArc
 50
357.0000000000074
 51
176.9999999999944
  0
ARC
  5
A2DB
330
1F
100
AcDbEntity
  8
0
 62
     0
 48
0.3
100
AcDbCircle
 10
88.95612644491643
 20
1284.614828250172
 30
0.0
 40
0.5999999999999944
100
AcDbArc
 50
176.9999999999944
 51
356.9999999999943
  0
LINE
  5
A2DC
330
1F
100
AcDbEntity
  8
0
 62
     0
 48
0.3
100
AcDbLine
 10
63.90997635524491
 20
1288.326888344332
 30
0.0
 11
77.42453316642252
 21
1288.326888344332
 31
0.0
  0
LINE
  5
A2DD
330
1F
100
AcDbEntity
  8
0
 62
     0
 48
0.3
100
AcDbLine
 10
63.90997635524491
 20
1287.114828250172
 30
0.0
 11
77.42453316642252
 21
1287.114828250172
 31
0.0
  0
LINE
  5
A2DF
330
1F
100
AcDbEntity
  8
0
 62
     0
 48
0.3
100
AcDbLine
 10
74.62453316642257
 20
1289.614828250172
 30
0.0
 11
71.12453316642256
 21
1289.614828250172
 31
0.0
  0
LINE
  5
A2E1
330
1F
100
AcDbEntity
  8
0
 62
     0
 48
0.3
100
AcDbLine
 10
84.06837736701801
 20
1288.402768156013
 30
0.0
 11
70.55382055584039
 21
1288.402768156013
 31
0.0
  0
LINE
  5
A2E2
330
1F
100
AcDbEntity
  8
0
 62
     0
 48
0.3
100
AcDbLine
 10
84.06837736701801
 20
1289.614828250172
 30
0.0
 11
70.55382055584039
 21
1289.614828250172
 31
0.0
  0
LINE
  5
A2E6
330
1F
100
AcDbEntity
  8
0
 62
     0
 48
0.3
100
AcDbLine
 10
78.12453316642256
 20
1289.614828250172
 30
0.0
 11
71.12453316642256
 21
1289.614828250172
 31
0.0
  0
ARC
  5
A2E7
330
1F
100
AcDbEntity
  8
0
 62
     0
 48
0.3
100
AcDbCircle
 10
63.90997635524491
 20
1286.114828250172
 30
0.0
 40
2.212060094159767
100
AcDbArc
 50
90.0
 51
114.5715139227186
  0
ARC
  5
A2E8
330
1F
100
AcDbEntity
  8
0
 62
     0
 48
0.3
100
AcDbCircle
 10
63.90997635524491
 20
1286.114828250172
 30
0.0
 40
1.0
100
AcDbArc
 50
90.0
 51
176.9999999999944
  0
LINE
  5
A2E9
330
1F
100
AcDbEntity
  8
0
 62
     0
 48
0.3
100
AcDbLine
 10
62.76084858326135
 20
1283.295486770586
 30
0.0
 11
62.91134682049039
 21
1286.167164206415
 31
0.0
  0
LINE
  5
A2EA
330
1F
100
AcDbEntity
  8
0
 62
     0
 48
0.3
100
AcDbLine
 10
62.91134682049039
 20
1286.167164206415
 30
0.0
 11
63.2214049981992
 21
1292.083426676426
 31
0.0
  0
ARC
  5
A2EB
330
1F
100
AcDbEntity
  8
0
 62
     0
 48
0.3
100
AcDbCircle
 10
61.42222727734656
 20
1292.114828250172
 30
0.0
 40
0.5999999999999944
100
AcDbArc
 50
356.9999999999943
 51
176.9999999999944
  0
ARC
  5
A2EC
330
1F
100
AcDbEntity
  8
0
 62
     0
 48
0.3
100
AcDbCircle
 10
60.22222727734652
 20
1292.114828250172
 30
0.0
 40
0.5999999999999944
100
AcDbArc
 50
356.9999999999943
 51
176.9999999999944
  0
ARC
  5
A2ED
330
1F
100
AcDbEntity
  8
0
 62
     0
 48
0.3
100
AcDbCircle
 10
59.02222727734647
 20
1292.114828250172
 30
0.0
 40
0.5999999999999944
100
AcDbArc
 50
356.9999999999943
 51
176.9999999999944
  0
LINE
  5
A2EE
330
1F
100
AcDbEntity
  8
0
 62
     0
 48
0.3
100
AcDbLine
 10
59.16084858326133
 20
1283.295486770586
 30
0.0
 11
59.16084858326133
 21
1283.295486770586
 31
0.0
  0
LINE
  5
A2EF
330
1F
100
AcDbEntity
  8
0
 62
     0
 48
0.3
100
AcDbLine
 10
60.36084858326137
 20
1283.295486770586
 30
0.0
 11
60.36084858326137
 21
1283.295486770586
 31
0.0
  0
LINE
  5
A2F0
330
1F
100
AcDbEntity
  8
0
 62
     0
 48
0.3
100
AcDbLine
 10
61.5608485832613
 20
1283.295486770586
 30
0.0
 11
61.5608485832613
 21
1283.295486770586
 31
0.0
  0
ARC
  5
A2F1
330
1F
100
AcDbEntity
  8
0
 62
     0
 48
0.3
100
AcDbCircle
 10
59.76167086240855
 20
1283.326888344332
 30
0.0
 40
0.5999999999999944
100
AcDbArc
 50
176.9999999999944
 51
357.0000000000074
  0
ARC
  5
A2F2
330
1F
100
AcDbEntity
  8
0
 62
     0
 48
0.3
100
AcDbCircle
 10
60.9616708624086
 20
1283.326888344332
 30
0.0
 40
0.5999999999999944
100
AcDbArc
 50
176.9999999999944
 51
357.0000000000074
  0
LINE
  5
A2F3
330
1F
100
AcDbEntity
  8
0
 62
     0
 48
0.3
100
AcDbLine
 10
57.96084858326128
 20
1283.295486770586
 30
0.0
 11
57.96084858326128
 21
1283.295486770586
 31
0.0
  0
ARC
  5
A2F4
330
1F
100
AcDbEntity
  8
0
 62
     0
 48
0.3
100
AcDbCircle
 10
58.56167086240862
 20
1283.326888344332
 30
0.0
 40
0.5999999999999944
100
AcDbArc
 50
176.9999999999944
 51
357.0000000000074
  0
LINE
  5
A2F5
330
1F
100
AcDbEntity
  8
0
 62
     0
 48
0.3
100
AcDbLine
 10
59.16084858326133
 20
1283.295486770586
 30
0.0
 11
59.6214049981993
 21
1292.083426676426
 31
0.0
  0
LINE
  5
A2F6
330
1F
100
AcDbEntity
  8
0
 62
     0
 48
0.3
100
AcDbLine
 10
59.62304955649369
 20
1292.146229823918
 30
0.0
 11
59.16249314155584
 21
1283.358289918078
 31
0.0
  0
LINE
  5
A2F7
330
1F
100
AcDbEntity
  8
0
 62
     0
 48
0.3
100
AcDbLine
 10
60.36084858326137
 20
1283.295486770586
 30
0.0
 11
60.82140499819923
 21
1292.083426676426
 31
0.0
  0
LINE
  5
A2F8
330
1F
100
AcDbEntity
  8
0
 62
     0
 48
0.3
100
AcDbLine
 10
60.82304955649374
 20
1292.146229823918
 30
0.0
 11
60.36249314155589
 21
1283.358289918078
 31
0.0
  0
LINE
  5
A2F9
330
1F
100
AcDbEntity
  8
0
 62
     0
 48
0.3
100
AcDbLine
 10
61.5608485832613
 20
1283.295486770586
 30
0.0
 11
62.02140499819927
 21
1292.083426676426
 31
0.0
  0
LINE
  5
A2FA
330
1F
100
AcDbEntity
  8
0
 62
     0
 48
0.3
100
AcDbLine
 10
62.02304955649379
 20
1292.146229823918
 30
0.0
 11
61.56249314155582
 21
1283.358289918078
 31
0.0
  0
LINE
  5
A2FB
330
1F
100
AcDbEntity
  8
0
 62
     0
 48
0.3
100
AcDbLine
 10
57.96084858326128
 20
1283.295486770586
 30
0.0
 11
58.42140499819925
 21
1292.083426676426
 31
0.0
  0
LINE
  5
A2FC
330
1F
100
AcDbEntity
  8
0
 62
     0
 48
0.3
100
AcDbLine
 10
58.42304955649376
 20
1292.146229823918
 30
0.0
 11
57.9624931415558
 21
1283.358289918078
 31
0.0
  0
ARC
  5
A2FD
330
1F
100
AcDbEntity
  8
0
 62
     0
 48
0.3
100
AcDbCircle
 10
62.62222727734649
 20
1292.114828250172
 30
0.0
 40
0.5999999999999944
100
AcDbArc
 50
356.9999999999943
 51
176.9999999999944
  0
ARC
  5
A2FE
330
1F
100
AcDbEntity
  8
0
 62
     0
 48
0.3
100
AcDbCircle
 10
62.16167086240864
 20
1283.326888344332
 30
0.0
 40
0.5999999999999944
100
AcDbArc
 50
176.9999999999944
 51
357.0000000000074
  0
ARC
  5
A300
330
1F
100
AcDbEntity
  8
0
 62
     0
 48
0.3
100
AcDbCircle
 10
70.55382055584039
 20
1289.014828250172
 30
0.0
 40
0.6
100
AcDbArc
 50
90.0
 51
180.0
  0
ARC
  5
A301
330
1F
100
AcDbEntity
  8
0
 62
     0
 48
0.3
100
AcDbCircle
 10
70.55382055584039
 20
1289.002768156013
 30
0.0
 40
0.6
100
AcDbArc
 50
180.0
 51
270.0
  0
LINE
  5
A302
330
1F
100
AcDbEntity
  8
0
 62
     0
 48
0.3
100
AcDbLine
 10
69.95382055584037
 20
1289.014828250172
 30
0.0
 11
69.95382055584037
 21
1289.002768156013
 31
0.0
  0
LINE
  5
A305
330
1F
100
AcDbEntity
  8
0
 62
     0
 48
0.3
100
AcDbLine
 10
78.02453316642254
 20
1287.714828250172
 30
0.0
 11
78.02453316642254
 21
1287.726888344332
 31
0.0
  0
ARC
  5
A307
330
1F
100
AcDbEntity
  8
0
 62
     0
 48
0.3
100
AcDbCircle
 10
77.42453316642263
 20
1287.726888344332
 30
0.0
 40
0.6
100
AcDbArc
 50
0.0
 51
90.0
  0
LINE
  5
A308
330
1F
100
AcDbEntity
  8
0
 62
     0
 48
0.3
100
AcDbLine
 10
78.12453316642256
 20
1289.614828250172
 30
0.0
 11
74.62453316642257
 21
1289.614828250172
 31
0.0
  0
LINE
  5
A309
330
1F
100
AcDbEntity
  8
0
 62
     0
 48
0.3
100
AcDbLine
 10
74.62453316642257
 20
1289.614828250172
 30
0.0
 11
78.12453316642256
 21
1289.614828250172
 31
0.0
  0
LINE
  5
A30A
330
1F
100
AcDbEntity
  8
0
 62
     0
 48
0.3
100
AcDbLine
 10
74.62453316642257
 20
1289.614828250172
 30
0.0
 11
79.12444718669281
 21
1289.614828250172
 31
0.0
  0
ARC
  5
A30B
330
1F
100
AcDbEntity
  8
0
 62
     0
 48
0.3
100
AcDbCircle
 10
77.42453316642263
 20
1287.714828250172
 30
0.0
 40
0.6
100
AcDbArc
 50
270.0
 51
0.0
  0
ARC
  5
A30C
330
1F
100
AcDbEntity
  8
0
 62
     0
 48
0.3
100
AcDbCircle
 10
85.81668285985438
 20
1293.402768156012
 30
0.0
 40
0.5999999999999944
100
AcDbArc
 50
357.0000000000074
 51
176.9999999999944
  0
ARC
  5
A30D
330
1F
100
AcDbEntity
  8
0
 62
     0
 48
0.3
100
AcDbCircle
 10
87.01668285985443
 20
1293.402768156012
 30
0.0
 40
0.5999999999999944
100
AcDbArc
 50
357.0000000000074
 51
176.9999999999944
  0
ARC
  5
A30E
330
1F
100
AcDbEntity
  8
0
 62
     0
 48
0.3
100
AcDbCircle
 10
88.21668285985436
 20
1293.402768156012
 30
0.0
 40
0.5999999999999944
100
AcDbArc
 50
357.0000000000074
 51
176.9999999999944
  0
LINE
  5
A30F
330
1F
100
AcDbEntity
  8
0
 62
     0
 48
0.3
100
AcDbLine
 10
88.8175051390017
 20
1293.434169729758
 30
0.0
 11
88.8175051390017
 21
1293.434169729758
 31
0.0
  0
ARC
  5
A310
330
1F
100
AcDbEntity
  8
0
 62
     0
 48
0.3
100
AcDbCircle
 10
84.06837736701801
 20
1290.614828250172
 30
0.0
 40
1.0
100
AcDbArc
 50
270.0
 51
356.9999999999943
  0
ARC
  5
A311
330
1F
100
AcDbEntity
  8
0
 62
     0
 48
0.3
100
AcDbCircle
 10
84.06837736701801
 20
1290.614828250172
 30
0.0
 40
2.212060094159767
100
AcDbArc
 50
270.0
 51
294.5715139227186
  0
LINE
  5
A312
330
1F
100
AcDbEntity
  8
0
 62
     0
 48
0.3
100
AcDbLine
 10
86.41750513900161
 20
1293.434169729758
 30
0.0
 11
86.41750513900161
 21
1293.434169729758
 31
0.0
  0
LINE
  5
A313
330
1F
100
AcDbEntity
  8
0
 62
     0
 48
0.3
100
AcDbLine
 10
87.61750513900166
 20
1293.434169729758
 30
0.0
 11
87.61750513900166
 21
1293.434169729758
 31
0.0
  0
LINE
  5
A314
330
1F
100
AcDbEntity
  8
0
 62
     0
 48
0.3
100
AcDbLine
 10
85.21750513900157
 20
1293.434169729758
 30
0.0
 11
85.06700690177263
 21
1290.562492293929
 31
0.0
  0
ARC
  5
A315
330
1F
100
AcDbEntity
  8
0
 62
     0
 48
0.3
100
AcDbCircle
 10
85.35612644491653
 20
1284.614828250172
 30
0.0
 40
0.5999999999999944
100
AcDbArc
 50
176.9999999999944
 51
356.9999999999943
  0
ARC
  5
A316
330
1F
100
AcDbEntity
  8
0
 62
     0
 48
0.3
100
AcDbCircle
 10
86.55612644491634
 20
1284.614828250172
 30
0.0
 40
0.5999999999999944
100
AcDbArc
 50
176.9999999999944
 51
356.9999999999943
  0
ARC
  5
A317
330
1F
100
AcDbEntity
  8
0
 62
     0
 48
0.3
100
AcDbCircle
 10
87.75612644491639
 20
1284.614828250172
 30
0.0
 40
0.5999999999999944
100
AcDbArc
 50
176.9999999999944
 51
356.9999999999943
  0
LINE
  5
A318
330
1F
100
AcDbEntity
  8
0
 62
     0
 48
0.3
100
AcDbLine
 10
85.06700690177263
 20
1290.562492293929
 30
0.0
 11
84.7569487240637
 21
1284.646229823918
 31
0.0
  0
LINE
  5
A319
330
1F
100
AcDbEntity
  8
0
 62
     0
 48
0.3
100
AcDbLine
 10
85.95530416576911
 20
1284.583426676427
 30
0.0
 11
86.4158605807072
 21
1293.371366582267
 31
0.0
  0
LINE
  5
A31A
330
1F
100
AcDbEntity
  8
0
 62
     0
 48
0.3
100
AcDbLine
 10
86.41750513900161
 20
1293.434169729758
 30
0.0
 11
85.95694872406374
 21
1284.646229823918
 31
0.0
  0
LINE
  5
A31B
330
1F
100
AcDbEntity
  8
0
 62
     0
 48
0.3
100
AcDbLine
 10
87.15530416576916
 20
1284.583426676427
 30
0.0
 11
87.61586058070703
 21
1293.371366582267
 31
0.0
  0
LINE
  5
A31C
330
1F
100
AcDbEntity
  8
0
 62
     0
 48
0.3
100
AcDbLine
 10
87.61750513900166
 20
1293.434169729758
 30
0.0
 11
87.15694872406379
 21
1284.646229823918
 31
0.0
  0
LINE
  5
A31D
330
1F
100
AcDbEntity
  8
0
 62
     0
 48
0.3
100
AcDbLine
 10
88.3553041657692
 20
1284.583426676427
 30
0.0
 11
88.81586058070707
 21
1293.371366582267
 31
0.0
  0
LINE
  5
A31E
330
1F
100
AcDbEntity
  8
0
 62
     0
 48
0.3
100
AcDbLine
 10
88.8175051390017
 20
1293.434169729758
 30
0.0
 11
88.35694872406362
 21
1284.646229823918
 31
0.0
  0
ARC
  5
A31F
330
1F
100
AcDbEntity
  8
0
 62
     0
 48
0.3
100
AcDbCircle
 10
104.0666828598543
 20
1293.402768156012
 30
0.0
 40
0.5999999999999944
100
AcDbArc
 50
357.0000000000074
 51
176.9999999999944
  0
ARC
  5
A320
330
1F
100
AcDbEntity
  8
0
 62
     0
 48
0.3
100
AcDbCircle
 10
104.8561264449165
 20
1284.614828250172
 30
0.0
 40
0.5999999999999944
100
AcDbArc
 50
176.9999999999944
 51
356.9999999999943
  0
LINE
  5
A321
330
1F
100
AcDbEntity
  8
0
 62
     0
 48
0.3
100
AcDbLine
 10
104.6675051390016
 20
1293.434169729758
 30
0.0
 11
104.2069487240637
 21
1284.646229823918
 31
0.0
  0
LINE
  5
A322
330
1F
100
AcDbEntity
  8
0
 62
     0
 48
0.3
100
AcDbLine
 10
104.2053041657691
 20
1284.583426676427
 30
0.0
 11
104.6658605807072
 21
1293.371366582267
 31
0.0
  0
ARC
  5
A323
330
1F
100
AcDbEntity
  8
0
 62
     0
 48
0.3
100
AcDbCircle
 10
96.61668285985435
 20
1293.402768156012
 30
0.0
 40
0.5999999999999944
100
AcDbArc
 50
357.0000000000074
 51
176.9999999999944
  0
ARC
  5
A324
330
1F
100
AcDbEntity
  8
0
 62
     0
 48
0.3
100
AcDbCircle
 10
96.15612644491648
 20
1284.614828250172
 30
0.0
 40
0.5999999999999944
100
AcDbArc
 50
176.9999999999944
 51
356.9999999999943
  0
ARC
  5
A325
330
1F
100
AcDbEntity
  8
0
 62
     0
 48
0.3
100
AcDbCircle
 10
94.21668285985436
 20
1293.402768156012
 30
0.0
 40
0.5999999999999944
100
AcDbArc
 50
357.0000000000074
 51
176.9999999999944
  0
ARC
  5
A326
330
1F
100
AcDbEntity
  8
0
 62
     0
 48
0.3
100
AcDbCircle
 10
95.41668285985428
 20
1293.402768156012
 30
0.0
 40
0.5999999999999944
100
AcDbArc
 50
357.0000000000074
 51
176.9999999999944
  0
LINE
  5
A327
330
1F
100
AcDbEntity
  8
0
 62
     0
 48
0.3
100
AcDbLine
 10
96.01750513900164
 20
1293.434169729758
 30
0.0
 11
96.01750513900164
 21
1293.434169729758
 31
0.0
  0
LINE
  5
A328
330
1F
100
AcDbEntity
  8
0
 62
     0
 48
0.3
100
AcDbLine
 10
93.61750513900165
 20
1293.434169729758
 30
0.0
 11
93.61750513900165
 21
1293.434169729758
 31
0.0
  0
LINE
  5
A329
330
1F
100
AcDbEntity
  8
0
 62
     0
 48
0.3
100
AcDbLine
 10
94.8175051390017
 20
1293.434169729758
 30
0.0
 11
94.8175051390017
 21
1293.434169729758
 31
0.0
  0
ARC
  5
A32A
330
1F
100
AcDbEntity
  8
0
 62
     0
 48
0.3
100
AcDbCircle
 10
94.95612644491643
 20
1284.614828250172
 30
0.0
 40
0.5999999999999944
100
AcDbArc
 50
176.9999999999944
 51
356.9999999999943
  0
LINE
  5
A32B
330
1F
100
AcDbEntity
  8
0
 62
     0
 48
0.3
100
AcDbLine
 10
94.35530416576922
 20
1284.583426676427
 30
0.0
 11
94.81586058070707
 21
1293.371366582267
 31
0.0
  0
LINE
  5
A32C
330
1F
100
AcDbEntity
  8
0
 62
     0
 48
0.3
100
AcDbLine
 10
94.8175051390017
 20
1293.434169729758
 30
0.0
 11
94.35694872406362
 21
1284.646229823918
 31
0.0
  0
LINE
  5
A32D
330
1F
100
AcDbEntity
  8
0
 62
     0
 48
0.3
100
AcDbLine
 10
95.55530416576926
 20
1284.583426676427
 30
0.0
 11
96.01586058070711
 21
1293.371366582267
 31
0.0
  0
LINE
  5
A32E
330
1F
100
AcDbEntity
  8
0
 62
     0
 48
0.3
100
AcDbLine
 10
96.01750513900164
 20
1293.434169729758
 30
0.0
 11
95.55694872406366
 21
1284.646229823918
 31
0.0
  0
ARC
  5
A32F
330
1F
100
AcDbEntity
  8
0
 62
     0
 48
0.3
100
AcDbCircle
 10
91.81668285985438
 20
1293.402768156012
 30
0.0
 40
0.5999999999999944
100
AcDbArc
 50
357.0000000000074
 51
176.9999999999944
  0
ARC
  5
A330
330
1F
100
AcDbEntity
  8
0
 62
     0
 48
0.3
100
AcDbCircle
 10
90.61668285985433
 20
1293.402768156012
 30
0.0
 40
0.5999999999999944
100
AcDbArc
 50
357.0000000000074
 51
176.9999999999944
  0
ARC
  5
A331
330
1F
100
AcDbEntity
  8
0
 62
     0
 48
0.3
100
AcDbCircle
 10
91.35612644491653
 20
1284.614828250172
 30
0.0
 40
0.5999999999999944
100
AcDbArc
 50
176.9999999999944
 51
356.9999999999943
  0
LINE
  5
A332
330
1F
100
AcDbEntity
  8
0
 62
     0
 48
0.3
100
AcDbLine
 10
91.21750513900156
 20
1293.434169729758
 30
0.0
 11
91.21750513900156
 21
1293.434169729758
 31
0.0
  0
LINE
  5
A333
330
1F
100
AcDbEntity
  8
0
 62
     0
 48
0.3
100
AcDbLine
 10
90.01750513900162
 20
1293.434169729758
 30
0.0
 11
90.01750513900162
 21
1293.434169729758
 31
0.0
  0
ARC
  5
A334
330
1F
100
AcDbEntity
  8
0
 62
     0
 48
0.3
100
AcDbCircle
 10
90.15612644491648
 20
1284.614828250172
 30
0.0
 40
0.5999999999999944
100
AcDbArc
 50
176.9999999999944
 51
356.9999999999943
  0
LINE
  5
A335
330
1F
100
AcDbEntity
  8
0
 62
     0
 48
0.3
100
AcDbLine
 10
89.55530416576925
 20
1284.583426676427
 30
0.0
 11
90.01586058070712
 21
1293.371366582267
 31
0.0
  0
LINE
  5
A336
330
1F
100
AcDbEntity
  8
0
 62
     0
 48
0.3
100
AcDbLine
 10
90.01750513900162
 20
1293.434169729758
 30
0.0
 11
89.55694872406366
 21
1284.646229823918
 31
0.0
  0
LINE
  5
A337
330
1F
100
AcDbEntity
  8
0
 62
     0
 48
0.3
100
AcDbLine
 10
90.75530416576929
 20
1284.583426676427
 30
0.0
 11
91.21586058070716
 21
1293.371366582267
 31
0.0
  0
LINE
  5
A338
330
1F
100
AcDbEntity
  8
0
 62
     0
 48
0.3
100
AcDbLine
 10
91.21750513900156
 20
1293.434169729758
 30
0.0
 11
90.75694872406371
 21
1284.646229823918
 31
0.0
  0
LINE
  5
A339
330
1F
100
AcDbEntity
  8
0
 62
     0
 48
0.3
100
AcDbLine
 10
92.41750513900161
 20
1293.434169729758
 30
0.0
 11
92.41750513900161
 21
1293.434169729758
 31
0.0
  0
ARC
  5
A33A
330
1F
100
AcDbEntity
  8
0
 62
     0
 48
0.3
100
AcDbCircle
 10
92.55612644491634
 20
1284.614828250172
 30
0.0
 40
0.5999999999999944
100
AcDbArc
 50
176.9999999999944
 51
356.9999999999943
  0
LINE
  5
A33B
330
1F
100
AcDbEntity
  8
0
 62
     0
 48
0.3
100
AcDbLine
 10
91.95530416576913
 20
1284.583426676427
 30
0.0
 11
92.41586058070721
 21
1293.371366582267
 31
0.0
  0
LINE
  5
A33C
330
1F
100
AcDbEntity
  8
0
 62
     0
 48
0.3
100
AcDbLine
 10
92.41750513900161
 20
1293.434169729758
 30
0.0
 11
91.95694872406376
 21
1284.646229823918
 31
0.0
  0
ARC
  5
A33D
330
1F
100
AcDbEntity
  8
0
 62
     0
 48
0.3
100
AcDbCircle
 10
93.01668285985442
 20
1293.402768156012
 30
0.0
 40
0.5999999999999944
100
AcDbArc
 50
357.0000000000074
 51
176.9999999999944
  0
ARC
  5
A33E
330
1F
100
AcDbEntity
  8
0
 62
     0
 48
0.3
100
AcDbCircle
 10
93.75612644491639
 20
1284.614828250172
 30
0.0
 40
0.5999999999999944
100
AcDbArc
 50
176.9999999999944
 51
356.9999999999943
  0
LINE
  5
A33F
330
1F
100
AcDbEntity
  8
0
 62
     0
 48
0.3
100
AcDbLine
 10
93.15530416576917
 20
1284.583426676427
 30
0.0
 11
93.61586058070702
 21
1293.371366582267
 31
0.0
  0
LINE
  5
A340
330
1F
100
AcDbEntity
  8
0
 62
     0
 48
0.3
100
AcDbLine
 10
93.61750513900165
 20
1293.434169729758
 30
0.0
 11
93.1569487240638
 21
1284.646229823918
 31
0.0
  0
ARC
  5
A341
330
1F
100
AcDbEntity
  8
0
 62
     0
 48
0.3
100
AcDbCircle
 10
102.8166828598543
 20
1293.402768156012
 30
0.0
 40
0.5999999999999944
100
AcDbArc
 50
357.0000000000074
 51
176.9999999999944
  0
ARC
  5
A342
330
1F
100
AcDbEntity
  8
0
 62
     0
 48
0.3
100
AcDbCircle
 10
103.6061264449165
 20
1284.614828250172
 30
0.0
 40
0.5999999999999944
100
AcDbArc
 50
176.9999999999944
 51
356.9999999999943
  0
LINE
  5
A343
330
1F
100
AcDbEntity
  8
0
 62
     0
 48
0.3
100
AcDbLine
 10
103.4175051390016
 20
1293.434169729758
 30
0.0
 11
102.9569487240637
 21
1284.646229823918
 31
0.0
  0
LINE
  5
A344
330
1F
100
AcDbEntity
  8
0
 62
     0
 48
0.3
100
AcDbLine
 10
102.9553041657691
 20
1284.583426676427
 30
0.0
 11
103.4158605807071
 21
1293.371366582267
 31
0.0
  0
ARC
  5
A345
330
1F
100
AcDbEntity
  8
0
 62
     0
 48
0.3
100
AcDbCircle
 10
101.5666828598543
 20
1293.402768156012
 30
0.0
 40
0.5999999999999944
100
AcDbArc
 50
357.0000000000074
 51
176.9999999999944
  0
ARC
  5
A346
330
1F
100
AcDbEntity
  8
0
 62
     0
 48
0.3
100
AcDbCircle
 10
97.81668285985439
 20
1293.402768156012
 30
0.0
 40
0.5999999999999944
100
AcDbArc
 50
357.0000000000074
 51
176.9999999999944
  0
ARC
  5
A347
330
1F
100
AcDbEntity
  8
0
 62
     0
 48
0.3
100
AcDbCircle
 10
99.06668285985439
 20
1293.402768156012
 30
0.0
 40
0.5999999999999944
100
AcDbArc
 50
357.0000000000074
 51
176.9999999999944
  0
ARC
  5
A348
330
1F
100
AcDbEntity
  8
0
 62
     0
 48
0.3
100
AcDbCircle
 10
100.3166828598543
 20
1293.402768156012
 30
0.0
 40
0.5999999999999944
100
AcDbArc
 50
357.0000000000074
 51
176.9999999999944
  0
LINE
  5
A349
330
1F
100
AcDbEntity
  8
0
 62
     0
 48
0.3
100
AcDbLine
 10
102.1675051390016
 20
1293.434169729758
 30
0.0
 11
102.1675051390016
 21
1293.434169729758
 31
0.0
  0
LINE
  5
A34A
330
1F
100
AcDbEntity
  8
0
 62
     0
 48
0.3
100
AcDbLine
 10
100.9175051390016
 20
1293.434169729758
 30
0.0
 11
100.9175051390016
 21
1293.434169729758
 31
0.0
  0
LINE
  5
A34B
330
1F
100
AcDbEntity
  8
0
 62
     0
 48
0.3
100
AcDbLine
 10
97.21750513900156
 20
1293.434169729758
 30
0.0
 11
97.21750513900156
 21
1293.434169729758
 31
0.0
  0
LINE
  5
A34C
330
1F
100
AcDbEntity
  8
0
 62
     0
 48
0.3
100
AcDbLine
 10
99.6675051390016
 20
1293.434169729758
 30
0.0
 11
99.6675051390016
 21
1293.434169729758
 31
0.0
  0
LINE
  5
A34D
330
1F
100
AcDbEntity
  8
0
 62
     0
 48
0.3
100
AcDbLine
 10
98.4175051390016
 20
1293.434169729758
 30
0.0
 11
98.4175051390016
 21
1293.434169729758
 31
0.0
  0
ARC
  5
A34E
330
1F
100
AcDbEntity
  8
0
 62
     0
 48
0.3
100
AcDbCircle
 10
102.3561264449165
 20
1284.614828250172
 30
0.0
 40
0.5999999999999944
100
AcDbArc
 50
176.9999999999944
 51
356.9999999999943
  0
ARC
  5
A34F
330
1F
100
AcDbEntity
  8
0
 62
     0
 48
0.3
100
AcDbCircle
 10
101.1061264449165
 20
1284.614828250172
 30
0.0
 40
0.5999999999999944
100
AcDbArc
 50
176.9999999999944
 51
356.9999999999943
  0
ARC
  5
A350
330
1F
100
AcDbEntity
  8
0
 62
     0
 48
0.3
100
AcDbCircle
 10
97.35612644491652
 20
1284.614828250172
 30
0.0
 40
0.5999999999999944
100
AcDbArc
 50
176.9999999999944
 51
356.9999999999943
  0
ARC
  5
A351
330
1F
100
AcDbEntity
  8
0
 62
     0
 48
0.3
100
AcDbCircle
 10
98.60612644491652
 20
1284.614828250172
 30
0.0
 40
0.5999999999999944
100
AcDbArc
 50
176.9999999999944
 51
356.9999999999943
  0
ARC
  5
A352
330
1F
100
AcDbEntity
  8
0
 62
     0
 48
0.3
100
AcDbCircle
 10
99.85612644491652
 20
1284.614828250172
 30
0.0
 40
0.5999999999999944
100
AcDbArc
 50
176.9999999999944
 51
356.9999999999943
  0
LINE
  5
A353
330
1F
100
AcDbEntity
  8
0
 62
     0
 48
0.3
100
AcDbLine
 10
96.75530416576931
 20
1284.583426676427
 30
0.0
 11
97.21586058070716
 21
1293.371366582267
 31
0.0
  0
LINE
  5
A354
330
1F
100
AcDbEntity
  8
0
 62
     0
 48
0.3
100
AcDbLine
 10
97.21750513900156
 20
1293.434169729758
 30
0.0
 11
96.75694872406371
 21
1284.646229823918
 31
0.0
  0
LINE
  5
A355
330
1F
100
AcDbEntity
  8
0
 62
     0
 48
0.3
100
AcDbLine
 10
102.1675051390016
 20
1293.434169729758
 30
0.0
 11
101.7069487240637
 21
1284.646229823918
 31
0.0
  0
LINE
  5
A356
330
1F
100
AcDbEntity
  8
0
 62
     0
 48
0.3
100
AcDbLine
 10
101.7053041657691
 20
1284.583426676427
 30
0.0
 11
102.1658605807072
 21
1293.371366582267
 31
0.0
  0
LINE
  5
A357
330
1F
100
AcDbEntity
  8
0
 62
     0
 48
0.3
100
AcDbLine
 10
100.9175051390016
 20
1293.434169729758
 30
0.0
 11
100.4569487240637
 21
1284.646229823918
 31
0.0
  0
LINE
  5
A358
330
1F
100
AcDbEntity
  8
0
 62
     0
 48
0.3
100
AcDbLine
 10
100.4553041657691
 20
1284.583426676427
 30
0.0
 11
100.9158605807072
 21
1293.371366582267
 31
0.0
  0
LINE
  5
A359
330
1F
100
AcDbEntity
  8
0
 62
     0
 48
0.3
100
AcDbLine
 10
99.6675051390016
 20
1293.434169729758
 30
0.0
 11
99.20694872406375
 21
1284.646229823918
 31
0.0
  0
LINE
  5
A35A
330
1F
100
AcDbEntity
  8
0
 62
     0
 48
0.3
100
AcDbLine
 10
99.20530416576912
 20
1284.583426676427
 30
0.0
 11
99.66586058070721
 21
1293.371366582267
 31
0.0
  0
LINE
  5
A35B
330
1F
100
AcDbEntity
  8
0
 62
     0
 48
0.3
100
AcDbLine
 10
98.4175051390016
 20
1293.434169729758
 30
0.0
 11
97.95694872406375
 21
1284.646229823918
 31
0.0
  0
LINE
  5
A35C
330
1F
100
AcDbEntity
  8
0
 62
     0
 48
0.3
100
AcDbLine
 10
97.95530416576912
 20
1284.583426676427
 30
0.0
 11
98.41586058070721
 21
1293.371366582267
 31
0.0
  0
LINE
  5
A35D
330
1F
100
AcDbEntity
  8
0
 62
     0
 48
0.3
100
AcDbLine
 10
103.4175051390016
 20
1293.434169729758
 30
0.0
 11
103.4175051390016
 21
1293.434169729758
 31
0.0
  0
ARC
  5
A35E
330
1F
100
AcDbEntity
  8
0
 62
     0
 48
0.3
100
AcDbCircle
 10
112.6166828598543
 20
1293.402768156012
 30
0.0
 40
0.5999999999999944
100
AcDbArc
 50
357.0000000000074
 51
176.9999999999944
  0
ARC
  5
A35F
330
1F
100
AcDbEntity
  8
0
 62
     0
 48
0.3
100
AcDbCircle
 10
112.1561264449164
 20
1284.614828250172
 30
0.0
 40
0.5999999999999944
100
AcDbArc
 50
176.9999999999944
 51
356.9999999999943
  0
ARC
  5
A360
330
1F
100
AcDbEntity
  8
0
 62
     0
 48
0.3
100
AcDbCircle
 10
110.2166828598543
 20
1293.402768156012
 30
0.0
 40
0.5999999999999944
100
AcDbArc
 50
357.0000000000074
 51
176.9999999999944
  0
ARC
  5
A361
330
1F
100
AcDbEntity
  8
0
 62
     0
 48
0.3
100
AcDbCircle
 10
111.4166828598542
 20
1293.402768156012
 30
0.0
 40
0.5999999999999944
100
AcDbArc
 50
357.0000000000074
 51
176.9999999999944
  0
LINE
  5
A362
330
1F
100
AcDbEntity
  8
0
 62
     0
 48
0.3
100
AcDbLine
 10
112.0175051390016
 20
1293.434169729758
 30
0.0
 11
112.0175051390016
 21
1293.434169729758
 31
0.0
  0
LINE
  5
A363
330
1F
100
AcDbEntity
  8
0
 62
     0
 48
0.3
100
AcDbLine
 10
109.6175051390016
 20
1293.434169729758
 30
0.0
 11
109.6175051390016
 21
1293.434169729758
 31
0.0
  0
LINE
  5
A364
330
1F
100
AcDbEntity
  8
0
 62
     0
 48
0.3
100
AcDbLine
 10
110.8175051390017
 20
1293.434169729758
 30
0.0
 11
110.8175051390017
 21
1293.434169729758
 31
0.0
  0
ARC
  5
A365
330
1F
100
AcDbEntity
  8
0
 62
     0
 48
0.3
100
AcDbCircle
 10
109.7561264449163
 20
1284.614828250172
 30
0.0
 40
0.5999999999999944
100
AcDbArc
 50
176.9999999999944
 51
356.9999999999943
  0
ARC
  5
A366
330
1F
100
AcDbEntity
  8
0
 62
     0
 48
0.3
100
AcDbCircle
 10
110.9561264449164
 20
1284.614828250172
 30
0.0
 40
0.5999999999999944
100
AcDbArc
 50
176.9999999999944
 51
356.9999999999943
  0
LINE
  5
A367
330
1F
100
AcDbEntity
  8
0
 62
     0
 48
0.3
100
AcDbLine
 10
109.1553041657691
 20
1284.583426676427
 30
0.0
 11
109.615860580707
 21
1293.371366582267
 31
0.0
  0
LINE
  5
A368
330
1F
100
AcDbEntity
  8
0
 62
     0
 48
0.3
100
AcDbLine
 10
109.6175051390016
 20
1293.434169729758
 30
0.0
 11
109.1569487240638
 21
1284.646229823918
 31
0.0
  0
LINE
  5
A369
330
1F
100
AcDbEntity
  8
0
 62
     0
 48
0.3
100
AcDbLine
 10
110.3553041657692
 20
1284.583426676427
 30
0.0
 11
110.815860580707
 21
1293.371366582267
 31
0.0
  0
LINE
  5
A36A
330
1F
100
AcDbEntity
  8
0
 62
     0
 48
0.3
100
AcDbLine
 10
110.8175051390017
 20
1293.434169729758
 30
0.0
 11
110.3569487240636
 21
1284.646229823918
 31
0.0
  0
LINE
  5
A36B
330
1F
100
AcDbEntity
  8
0
 62
     0
 48
0.3
100
AcDbLine
 10
111.5553041657692
 20
1284.583426676427
 30
0.0
 11
112.0158605807071
 21
1293.371366582267
 31
0.0
  0
LINE
  5
A36C
330
1F
100
AcDbEntity
  8
0
 62
     0
 48
0.3
100
AcDbLine
 10
112.0175051390016
 20
1293.434169729758
 30
0.0
 11
111.5569487240636
 21
1284.646229823918
 31
0.0
  0
ARC
  5
A36D
330
1F
100
AcDbEntity
  8
0
 62
     0
 48
0.3
100
AcDbCircle
 10
106.5666828598543
 20
1293.402768156012
 30
0.0
 40
0.5999999999999944
100
AcDbArc
 50
357.0000000000074
 51
176.9999999999944
  0
ARC
  5
A36E
330
1F
100
AcDbEntity
  8
0
 62
     0
 48
0.3
100
AcDbCircle
 10
105.3166828598543
 20
1293.402768156012
 30
0.0
 40
0.5999999999999944
100
AcDbArc
 50
357.0000000000074
 51
176.9999999999944
  0
ARC
  5
A36F
330
1F
100
AcDbEntity
  8
0
 62
     0
 48
0.3
100
AcDbCircle
 10
107.8166828598543
 20
1293.402768156012
 30
0.0
 40
0.5999999999999944
100
AcDbArc
 50
357.0000000000074
 51
176.9999999999944
  0
LINE
  5
A370
330
1F
100
AcDbEntity
  8
0
 62
     0
 48
0.3
100
AcDbLine
 10
108.4175051390016
 20
1293.434169729758
 30
0.0
 11
108.4175051390016
 21
1293.434169729758
 31
0.0
  0
LINE
  5
A371
330
1F
100
AcDbEntity
  8
0
 62
     0
 48
0.3
100
AcDbLine
 10
107.1675051390016
 20
1293.434169729758
 30
0.0
 11
107.1675051390016
 21
1293.434169729758
 31
0.0
  0
LINE
  5
A372
330
1F
100
AcDbEntity
  8
0
 62
     0
 48
0.3
100
AcDbLine
 10
105.9175051390015
 20
1293.434169729758
 30
0.0
 11
105.9175051390015
 21
1293.434169729758
 31
0.0
  0
LINE
  5
A373
330
1F
100
AcDbEntity
  8
0
 62
     0
 48
0.3
100
AcDbLine
 10
104.6675051390016
 20
1293.434169729758
 30
0.0
 11
104.6675051390016
 21
1293.434169729758
 31
0.0
  0
ARC
  5
A374
330
1F
100
AcDbEntity
  8
0
 62
     0
 48
0.3
100
AcDbCircle
 10
106.1061264449165
 20
1284.614828250172
 30
0.0
 40
0.5999999999999944
100
AcDbArc
 50
176.9999999999944
 51
356.9999999999943
  0
ARC
  5
A375
330
1F
100
AcDbEntity
  8
0
 62
     0
 48
0.3
100
AcDbCircle
 10
107.3561264449165
 20
1284.614828250172
 30
0.0
 40
0.5999999999999944
100
AcDbArc
 50
176.9999999999944
 51
356.9999999999943
  0
LINE
  5
A376
330
1F
100
AcDbEntity
  8
0
 62
     0
 48
0.3
100
AcDbLine
 10
107.9553041657691
 20
1284.583426676427
 30
0.0
 11
108.4158605807072
 21
1293.371366582267
 31
0.0
  0
LINE
  5
A377
330
1F
100
AcDbEntity
  8
0
 62
     0
 48
0.3
100
AcDbLine
 10
108.4175051390016
 20
1293.434169729758
 30
0.0
 11
107.9569487240637
 21
1284.646229823918
 31
0.0
  0
LINE
  5
A378
330
1F
100
AcDbEntity
  8
0
 62
     0
 48
0.3
100
AcDbLine
 10
107.1675051390016
 20
1293.434169729758
 30
0.0
 11
106.7069487240637
 21
1284.646229823918
 31
0.0
  0
LINE
  5
A379
330
1F
100
AcDbEntity
  8
0
 62
     0
 48
0.3
100
AcDbLine
 10
106.7053041657691
 20
1284.583426676427
 30
0.0
 11
107.1658605807072
 21
1293.371366582267
 31
0.0
  0
LINE
  5
A37A
330
1F
100
AcDbEntity
  8
0
 62
     0
 48
0.3
100
AcDbLine
 10
105.9175051390015
 20
1293.434169729758
 30
0.0
 11
105.4569487240637
 21
1284.646229823918
 31
0.0
  0
LINE
  5
A37B
330
1F
100
AcDbEntity
  8
0
 62
     0
 48
0.3
100
AcDbLine
 10
105.4553041657691
 20
1284.583426676427
 30
0.0
 11
105.9158605807072
 21
1293.371366582267
 31
0.0
  0
ARC
  5
A37C
330
1F
100
AcDbEntity
  8
0
 62
     0
 48
0.3
100
AcDbCircle
 10
109.0166828598544
 20
1293.402768156012
 30
0.0
 40
0.5999999999999944
100
AcDbArc
 50
357.0000000000074
 51
176.9999999999944
  0
ARC
  5
A37D
330
1F
100
AcDbEntity
  8
0
 62
     0
 48
0.3
100
AcDbCircle
 10
108.5561264449163
 20
1284.614828250172
 30
0.0
 40
0.5999999999999944
100
AcDbArc
 50
176.9999999999944
 51
356.9999999999943
  0
ARC
  5
A37E
330
1F
100
AcDbEntity
  8
0
 62
     0
 48
0.3
100
AcDbCircle
 10
113.8166828598543
 20
1293.402768156012
 30
0.0
 40
0.5999999999999944
100
AcDbArc
 50
357.0000000000074
 51
176.9999999999944
  0
ARC
  5
A37F
330
1F
100
AcDbEntity
  8
0
 62
     0
 48
0.3
100
AcDbCircle
 10
115.0166828598544
 20
1293.402768156012
 30
0.0
 40
0.5999999999999944
100
AcDbArc
 50
357.0000000000074
 51
176.9999999999944
  0
ARC
  5
A380
330
1F
100
AcDbEntity
  8
0
 62
     0
 48
0.3
100
AcDbCircle
 10
116.2166828598543
 20
1293.402768156012
 30
0.0
 40
0.5999999999999944
100
AcDbArc
 50
357.0000000000074
 51
176.9999999999944
  0
ARC
  5
A381
330
1F
100
AcDbEntity
  8
0
 62
     0
 48
0.3
100
AcDbCircle
 10
117.4166828598542
 20
1293.402768156012
 30
0.0
 40
0.5999999999999944
100
AcDbArc
 50
357.0000000000074
 51
176.9999999999944
  0
ARC
  5
A382
330
1F
100
AcDbEntity
  8
0
 62
     0
 48
0.3
100
AcDbCircle
 10
118.6166828598543
 20
1293.402768156012
 30
0.0
 40
0.5999999999999944
100
AcDbArc
 50
357.0000000000074
 51
176.9999999999944
  0
ARC
  5
A383
330
1F
100
AcDbEntity
  8
0
 62
     0
 48
0.3
100
AcDbCircle
 10
114.5561264449163
 20
1284.614828250172
 30
0.0
 40
0.5999999999999944
100
AcDbArc
 50
176.9999999999944
 51
356.9999999999943
  0
LINE
  5
A384
330
1F
100
AcDbEntity
  8
0
 62
     0
 48
0.3
100
AcDbLine
 10
113.2175051390015
 20
1293.434169729758
 30
0.0
 11
113.2175051390015
 21
1293.434169729758
 31
0.0
  0
LINE
  5
A385
330
1F
100
AcDbEntity
  8
0
 62
     0
 48
0.3
100
AcDbLine
 10
114.4175051390016
 20
1293.434169729758
 30
0.0
 11
114.4175051390016
 21
1293.434169729758
 31
0.0
  0
ARC
  5
A386
330
1F
100
AcDbEntity
  8
0
 62
     0
 48
0.3
100
AcDbCircle
 10
113.3561264449165
 20
1284.614828250172
 30
0.0
 40
0.5999999999999944
100
AcDbArc
 50
176.9999999999944
 51
356.9999999999943
  0
LINE
  5
A387
330
1F
100
AcDbEntity
  8
0
 62
     0
 48
0.3
100
AcDbLine
 10
112.7553041657693
 20
1284.583426676427
 30
0.0
 11
113.2158605807071
 21
1293.371366582267
 31
0.0
  0
LINE
  5
A388
330
1F
100
AcDbEntity
  8
0
 62
     0
 48
0.3
100
AcDbLine
 10
113.2175051390015
 20
1293.434169729758
 30
0.0
 11
112.7569487240636
 21
1284.646229823918
 31
0.0
  0
LINE
  5
A389
330
1F
100
AcDbEntity
  8
0
 62
     0
 48
0.3
100
AcDbLine
 10
113.9553041657691
 20
1284.583426676427
 30
0.0
 11
114.4158605807072
 21
1293.371366582267
 31
0.0
  0
LINE
  5
A38A
330
1F
100
AcDbEntity
  8
0
 62
     0
 48
0.3
100
AcDbLine
 10
114.4175051390016
 20
1293.434169729758
 30
0.0
 11
113.9569487240637
 21
1284.646229823918
 31
0.0
  0
LINE
  5
A38B
330
1F
100
AcDbEntity
  8
0
 62
     0
 48
0.3
100
AcDbLine
 10
119.2175051390015
 20
1293.434169729758
 30
0.0
 11
119.2175051390015
 21
1293.434169729758
 31
0.0
  0
LINE
  5
A38C
330
1F
100
AcDbEntity
  8
0
 62
     0
 48
0.3
100
AcDbLine
 10
115.6175051390016
 20
1293.434169729758
 30
0.0
 11
115.6175051390016
 21
1293.434169729758
 31
0.0
  0
LINE
  5
A38D
330
1F
100
AcDbEntity
  8
0
 62
     0
 48
0.3
100
AcDbLine
 10
116.8175051390017
 20
1293.434169729758
 30
0.0
 11
116.8175051390017
 21
1293.434169729758
 31
0.0
  0
LINE
  5
A38E
330
1F
100
AcDbEntity
  8
0
 62
     0
 48
0.3
100
AcDbLine
 10
118.0175051390016
 20
1293.434169729758
 30
0.0
 11
118.0175051390016
 21
1293.434169729758
 31
0.0
  0
ARC
  5
A38F
330
1F
100
AcDbEntity
  8
0
 62
     0
 48
0.3
100
AcDbCircle
 10
115.7561264449163
 20
1284.614828250172
 30
0.0
 40
0.5999999999999944
100
AcDbArc
 50
176.9999999999944
 51
356.9999999999943
  0
ARC
  5
A390
330
1F
100
AcDbEntity
  8
0
 62
     0
 48
0.3
100
AcDbCircle
 10
116.9561264449164
 20
1284.614828250172
 30
0.0
 40
0.5999999999999944
100
AcDbArc
 50
176.9999999999944
 51
356.9999999999943
  0
ARC
  5
A391
330
1F
100
AcDbEntity
  8
0
 62
     0
 48
0.3
100
AcDbCircle
 10
118.1561264449164
 20
1284.614828250172
 30
0.0
 40
0.5999999999999944
100
AcDbArc
 50
176.9999999999944
 51
356.9999999999943
  0
ARC
  5
A392
330
1F
100
AcDbEntity
  8
0
 62
     0
 48
0.3
100
AcDbCircle
 10
119.3561264449165
 20
1284.614828250172
 30
0.0
 40
0.5999999999999944
100
AcDbArc
 50
176.9999999999944
 51
356.9999999999943
  0
LINE
  5
A393
330
1F
100
AcDbEntity
  8
0
 62
     0
 48
0.3
100
AcDbLine
 10
115.1553041657691
 20
1284.583426676427
 30
0.0
 11
115.615860580707
 21
1293.371366582267
 31
0.0
  0
LINE
  5
A394
330
1F
100
AcDbEntity
  8
0
 62
     0
 48
0.3
100
AcDbLine
 10
115.6175051390016
 20
1293.434169729758
 30
0.0
 11
115.1569487240637
 21
1284.646229823918
 31
0.0
  0
LINE
  5
A395
330
1F
100
AcDbEntity
  8
0
 62
     0
 48
0.3
100
AcDbLine
 10
116.3553041657692
 20
1284.583426676427
 30
0.0
 11
116.815860580707
 21
1293.371366582267
 31
0.0
  0
LINE
  5
A396
330
1F
100
AcDbEntity
  8
0
 62
     0
 48
0.3
100
AcDbLine
 10
116.8175051390017
 20
1293.434169729758
 30
0.0
 11
116.3569487240636
 21
1284.646229823918
 31
0.0
  0
LINE
  5
A397
330
1F
100
AcDbEntity
  8
0
 62
     0
 48
0.3
100
AcDbLine
 10
117.5553041657692
 20
1284.583426676427
 30
0.0
 11
118.0158605807071
 21
1293.371366582267
 31
0.0
  0
LINE
  5
A398
330
1F
100
AcDbEntity
  8
0
 62
     0
 48
0.3
100
AcDbLine
 10
118.0175051390016
 20
1293.434169729758
 30
0.0
 11
117.5569487240636
 21
1284.646229823918
 31
0.0
  0
LINE
  5
A399
330
1F
100
AcDbEntity
  8
0
 62
     0
 48
0.3
100
AcDbLine
 10
118.7553041657693
 20
1284.583426676427
 30
0.0
 11
119.2158605807071
 21
1293.371366582267
 31
0.0
  0
LINE
  5
A39A
330
1F
100
AcDbEntity
  8
0
 62
     0
 48
0.3
100
AcDbLine
 10
119.2175051390015
 20
1293.434169729758
 30
0.0
 11
118.7569487240637
 21
1284.646229823918
 31
0.0
  0
LEADER
  5
A39B
330
1F
100
AcDbEntity
  8
0
 62
     0
 48
0.3
100
AcDbLeader
  3
ISO-25
 73
     0
 40
2.0
 41
37.86666666666667
 76
     3
 10
156.2163495720469
 20
1289.551414365438
 30
0.0
 10
167.9365989388507
 20
1300.502606273411
 30
0.0
 10
171.5739169973244
 20
1300.502606273411
 30
0.0
213
0.0
223
-1.5
233
0.0
1001
ACAD
1000
DSTYLE
1002
{
1070
   147
1040
0.625
1070
    77
1070
     0
1002
}
  0
LINE
  5
A39C
330
1F
100
AcDbEntity
  8
0
 62
     0
 48
0.3
100
AcDbLine
 10
143.89207323819
 20
1289.401414365438
 30
0.0
 11
181.2436129617642
 21
1289.401414365438
 31
0.0
  0
LINE
  5
A39D
330
1F
100
AcDbEntity
  8
0
 62
     0
 48
0.3
100
AcDbLine
 10
143.7030684340713
 20
1288.201414365438
 30
0.0
 11
181.2436129617642
 21
1288.201414365438
 31
0.0
  0
LINE
  5
A39E
330
1F
100
AcDbEntity
  8
0
 62
     0
 48
0.3
100
AcDbLine
 10
143.89207323819
 20
1289.401414365438
 30
0.0
 11
132.975015750476
 21
1289.401414365438
 31
0.0
  0
LINE
  5
A39F
330
1F
100
AcDbEntity
  8
0
 62
     0
 48
0.3
100
AcDbLine
 10
143.7030684340713
 20
1288.201414365438
 30
0.0
 11
132.975015750476
 21
1288.201414365438
 31
0.0
  0
LINE
  5
A3A0
330
1F
100
AcDbEntity
  8
0
 62
     0
 48
0.3
100
AcDbLine
 10
132.7750157504759
 20
1290.301414365438
 30
0.0
 11
125.0599116481105
 21
1290.301414365438
 31
0.0
  0
LINE
  5
A3A1
330
1F
100
AcDbEntity
  8
0
 62
     0
 48
0.3
100
AcDbLine
 10
132.7750157504759
 20
1287.301414365438
 30
0.0
 11
124.9026883102615
 21
1287.301414365438
 31
0.0
  0
LINE
  5
A3A2
330
1F
100
AcDbEntity
  8
0
 62
     0
 48
0.3
100
AcDbLine
 10
124.8653391597567
 20
1286.588750119488
 30
0.0
 11
125.0972607986152
 21
1291.014078611389
 31
0.0
  0
ARC
  5
A3A3
330
1F
100
AcDbEntity
  8
0
 62
     0
 48
0.3
100
AcDbCircle
 10
121.0166828598544
 20
1293.402768156012
 30
0.0
 40
0.5999999999999944
100
AcDbArc
 50
357.0000000000074
 51
176.9999999999944
  0
LINE
  5
A3A4
330
1F
100
AcDbEntity
  8
0
 62
     0
 48
0.3
100
AcDbLine
 10
123.8972619255203
 20
1291.0455232199
 30
0.0
 11
123.8972619255203
 21
1291.0455232199
 31
0.0
  0
LINE
  5
A3A5
330
1F
100
AcDbEntity
  8
0
 62
     0
 48
0.3
100
AcDbLine
 10
120.4175051390016
 20
1293.434169729758
 30
0.0
 11
120.4175051390016
 21
1293.434169729758
 31
0.0
  0
ARC
  5
A3A6
330
1F
100
AcDbEntity
  8
0
 62
     0
 48
0.3
100
AcDbCircle
 10
122.1730461655115
 20
1292.538707320773
 30
0.0
 40
0.5999999999999944
100
AcDbArc
 50
357.0000000000074
 51
176.9999999999944
  0
LINE
  5
A3A7
330
1F
100
AcDbEntity
  8
0
 62
     0
 48
0.3
100
AcDbLine
 10
121.5738684446587
 20
1292.570108894519
 30
0.0
 11
121.5738684446587
 21
1292.570108894519
 31
0.0
  0
LINE
  5
A3A8
330
1F
100
AcDbEntity
  8
0
 62
     0
 48
0.3
100
AcDbLine
 10
122.738678613718
 20
1291.835800708557
 30
0.0
 11
122.738678613718
 21
1291.835800708557
 31
0.0
  0
ARC
  5
A3A9
330
1F
100
AcDbEntity
  8
0
 62
     0
 48
0.3
100
AcDbCircle
 10
123.3378563345709
 20
1291.804399134811
 30
0.0
 40
0.5999999999999944
100
AcDbArc
 50
357.0000000000074
 51
176.9999999999944
  0
ARC
  5
A3AA
330
1F
100
AcDbEntity
  8
0
 62
     0
 48
0.3
100
AcDbCircle
 10
121.7924606811693
 20
1285.276703672676
 30
0.0
 40
0.5999999999999944
100
AcDbArc
 50
176.9999999999944
 51
356.9999999999943
  0
ARC
  5
A3AB
330
1F
100
AcDbEntity
  8
0
 62
     0
 48
0.3
100
AcDbCircle
 10
123.0263893090006
 20
1285.892677352068
 30
0.0
 40
0.5999999999999944
100
AcDbArc
 50
176.9999999999944
 51
356.9999999999943
  0
LINE
  5
A3AC
330
1F
100
AcDbEntity
  8
0
 62
     0
 48
0.3
100
AcDbLine
 10
122.4255670298533
 20
1285.861275778322
 30
0.0
 11
122.7399364361126
 21
1291.859801389594
 31
0.0
  0
LINE
  5
A3AD
330
1F
100
AcDbEntity
  8
0
 62
     0
 48
0.3
100
AcDbLine
 10
123.6255670298533
 20
1285.861275778322
 30
0.0
 11
123.935391750939
 21
1291.773083630597
 31
0.0
  0
LINE
  5
A3AE
330
1F
100
AcDbEntity
  8
0
 62
     0
 48
0.3
100
AcDbLine
 10
123.6653391597567
 20
1286.588750119488
 30
0.0
 11
123.8956173672256
 21
1290.982720072408
 31
0.0
  0
LINE
  5
A3AF
330
1F
100
AcDbEntity
  8
0
 62
     0
 48
0.3
100
AcDbLine
 10
123.8939750627412
 20
1290.982806141939
 30
0.0
 11
123.6669837180513
 21
1286.651553266979
 31
0.0
  0
LINE
  5
A3B0
330
1F
100
AcDbEntity
  8
0
 62
     0
 48
0.3
100
AcDbLine
 10
122.7382941316279
 20
1291.859887459125
 30
0.0
 11
122.4272115881478
 21
1285.924078925813
 31
0.0
  0
LINE
  5
A3B1
330
1F
100
AcDbEntity
  8
0
 62
     0
 48
0.3
100
AcDbLine
 10
121.1553041657691
 20
1284.583426676427
 30
0.0
 11
121.615860580707
 21
1293.371366582267
 31
0.0
  0
LINE
  5
A3B2
330
1F
100
AcDbEntity
  8
0
 62
     0
 48
0.3
100
AcDbLine
 10
122.3916384020221
 20
1285.24530209893
 30
0.0
 11
122.7738673177537
 21
1292.538664286008
 31
0.0
  0
LINE
  5
A3B3
330
1F
100
AcDbEntity
  8
0
 62
     0
 48
0.3
100
AcDbLine
 10
121.1916384020221
 20
1285.24530209893
 30
0.0
 11
121.5778341151244
 21
1292.614355288849
 31
0.0
  0
LINE
  5
A3B4
330
1F
100
AcDbEntity
  8
0
 62
     0
 48
0.3
100
AcDbLine
 10
121.5738684446587
 20
1292.570108894519
 30
0.0
 11
121.1932829603165
 21
1285.308105246421
 31
0.0
  0
ARC
  5
A3B5
330
1F
100
AcDbEntity
  8
0
 62
     0
 48
0.3
100
AcDbCircle
 10
124.4964396463728
 20
1291.014121646154
 30
0.0
 40
0.5999999999999944
100
AcDbArc
 50
357.0000000000074
 51
176.9999999999944
  0
ARC
  5
A3B6
330
1F
100
AcDbEntity
  8
0
 62
     0
 48
0.3
100
AcDbCircle
 10
124.2661614389039
 20
1286.620151693234
 30
0.0
 40
0.5999999999999944
100
AcDbArc
 50
176.9999999999944
 51
356.9999999999943
  0
LINE
  5
A3B7
330
1F
100
AcDbEntity
  8
0
 62
     0
 48
0.3
100
AcDbLine
 10
132.975015750476
 20
1288.801414365438
 30
0.0
 11
132.975015750476
 21
1290.101414365438
 31
0.0
  0
LINE
  5
A3B8
330
1F
100
AcDbEntity
  8
0
 62
     0
 48
0.3
100
AcDbLine
 10
132.975015750476
 20
1289.551414365438
 30
0.0
 11
132.975015750476
 21
1288.051414365438
 31
0.0
  0
LINE
  5
A3B9
330
1F
100
AcDbEntity
  8
0
 62
     0
 48
0.3
100
AcDbLine
 10
132.975015750476
 20
1289.118444597166
 30
0.0
 11
132.975015750476
 21
1289.551414365438
 31
0.0
  0
LINE
  5
A3BA
330
1F
100
AcDbEntity
  8
0
 62
     0
 48
0.3
100
AcDbLine
 10
132.7750157504759
 20
1290.301414365438
 30
0.0
 11
132.975015750476
 21
1290.101414365438
 31
0.0
  0
LINE
  5
A3BB
330
1F
100
AcDbEntity
  8
0
 62
     0
 48
0.3
100
AcDbLine
 10
132.975015750476
 20
1287.501414365438
 30
0.0
 11
132.7750157504759
 21
1287.301414365438
 31
0.0
  0
LINE
  5
A3BC
330
1F
100
AcDbEntity
  8
0
 62
     0
 48
0.3
100
AcDbLine
 10
132.975015750476
 20
1288.801414365438
 30
0.0
 11
132.975015750476
 21
1287.501414365438
 31
0.0
  0
LINE
  5
A3BE
330
1F
100
AcDbEntity
  8
0
 62
     0
 48
0.3
100
AcDbLine
 10
248.9285156150145
 20
1289.460423284187
 30
0.0
 11
300.1476541913382
 21
1289.460423284187
 31
0.0
  0
LINE
  5
A3BF
330
1F
100
AcDbEntity
  8
0
 62
     0
 48
0.3
100
AcDbLine
 10
240.6681808500653
 20
1289.460423284187
 30
0.0
 11
248.9285156150145
 21
1289.460423284187
 31
0.0
  0
LINE
  5
A3C0
330
1F
100
AcDbEntity
  8
0
 62
     0
 48
0.3
100
AcDbLine
 10
240.6681808500653
 20
1288.260423284186
 30
0.0
 11
248.9285156150145
 21
1288.260423284186
 31
0.0
  0
LINE
  5
A3C1
330
1F
100
AcDbEntity
  8
0
 62
     0
 48
0.3
100
AcDbLine
 10
308.3122039530741
 20
1289.460423284187
 30
0.0
 11
380.7177580099022
 21
1289.460423284187
 31
0.0
  0
LINE
  5
A3C2
330
1F
100
AcDbEntity
  8
0
 62
     0
 48
0.3
100
AcDbLine
 10
316.762313528424
 20
1288.298363190027
 30
0.0
 11
380.7177580099023
 21
1288.298363190027
 31
0.0
  0
MTEXT
  5
A3D5
102
{ACAD_REACTORS
330
A3DA
102
}
330
1F
100
AcDbEntity
  8
0
 62
     0
 48
0.3
100
AcDbMText
 10
484.576456361411
 20
1311.956185435215
 30
0.0
 40
5.0
 41
0.0
 71
     9
 72
     1
  1
ＳＵＳスプリング
 73
     1
 44
1.0
  0
LINE
  5
A3D6
330
1F
100
AcDbEntity
  8
0
 62
     0
 48
0.3
100
AcDbLine
 10
446.0761560187887
 20
1289.397009399452
 30
0.0
 11
494.9168566762977
 21
1289.397009399452
 31
0.0
  0
LINE
  5
A3D7
330
1F
100
AcDbEntity
  8
0
 62
     0
 48
0.3
100
AcDbLine
 10
446.0761560187887
 20
1288.234949305292
 30
0.0
 11
494.8402333535844
 21
1288.234949305292
 31
0.0
  0
ARC
  5
A3D8
330
1F
100
AcDbEntity
  8
0
 62
     0
 48
0.3
100
AcDbCircle
 10
534.5244614288864
 20
1293.398363190026
 30
0.0
 40
0.5999999999999944
100
AcDbArc
 50
356.9999999999943
 51
176.9999999999944
  0
ARC
  5
A3D9
330
1F
100
AcDbEntity
  8
0
 62
     0
 48
0.3
100
AcDbCircle
 10
534.0639050139485
 20
1284.610423284186
 30
0.0
 40
0.5999999999999944
100
AcDbArc
 50
176.9999999999944
 51
357.0000000000074
  0
LEADER
  5
A3DA
330
1F
100
AcDbEntity
  8
0
 62
     0
 48
0.3
100
AcDbLeader
  3
ISO-25
 73
     0
 40
2.0
 41
18.26666666666667
 76
     3
 10
508.9558630026322
 20
1293.997540910879
 30
0.0
 10
489.8262981093076
 20
1313.456185435216
 30
0.0
 10
485.826456361411
 20
1313.456185435216
 30
0.0
213
0.0
223
1.5
233
0.0
1001
ACAD
1000
DSTYLE
1002
{
1070
   147
1040
0.625
1070
    77
1070
     0
1002
}
  0
ARC
  5
A3DB
330
1F
100
AcDbEntity
  8
0
 62
     0
 48
0.3
100
AcDbCircle
 10
502.9244614288863
 20
1293.398363190026
 30
0.0
 40
0.5999999999999944
100
AcDbArc
 50
356.9999999999943
 51
176.9999999999944
  0
ARC
  5
A3DC
330
1F
100
AcDbEntity
  8
0
 62
     0
 48
0.3
100
AcDbCircle
 10
502.4639050139485
 20
1284.610423284186
 30
0.0
 40
0.5999999999999944
100
AcDbArc
 50
176.9999999999944
 51
357.0000000000074
  0
ARC
  5
A3DD
330
1F
100
AcDbEntity
  8
0
 62
     0
 48
0.3
100
AcDbCircle
 10
495.3841482274299
 20
1286.999069794045
 30
0.0
 40
0.5999999999999944
100
AcDbArc
 50
176.9999999999944
 51
357.0000000000074
  0
LINE
  5
A3DE
330
1F
100
AcDbEntity
  8
0
 62
     0
 48
0.3
100
AcDbLine
 10
495.015248714046
 20
1291.424441320711
 30
0.0
 11
494.7833270751876
 21
1286.99911282881
 31
0.0
  0
ARC
  5
A3DF
330
1F
100
AcDbEntity
  8
0
 62
     0
 48
0.3
100
AcDbCircle
 10
500.5244614288864
 20
1293.398363190026
 30
0.0
 40
0.5999999999999944
100
AcDbArc
 50
356.9999999999943
 51
176.9999999999944
  0
ARC
  5
A3E0
330
1F
100
AcDbEntity
  8
0
 62
     0
 48
0.3
100
AcDbCircle
 10
501.7244614288864
 20
1293.398363190026
 30
0.0
 40
0.5999999999999944
100
AcDbArc
 50
356.9999999999943
 51
176.9999999999944
  0
ARC
  5
A3E1
330
1F
100
AcDbEntity
  8
0
 62
     0
 48
0.3
100
AcDbCircle
 10
499.3244614288864
 20
1293.398363190026
 30
0.0
 40
0.5999999999999944
100
AcDbArc
 50
356.9999999999943
 51
176.9999999999944
  0
ARC
  5
A3E2
330
1F
100
AcDbEntity
  8
0
 62
     0
 48
0.3
100
AcDbCircle
 10
500.0639050139485
 20
1284.610423284186
 30
0.0
 40
0.5999999999999944
100
AcDbArc
 50
176.9999999999944
 51
357.0000000000074
  0
LINE
  5
A3E3
330
1F
100
AcDbEntity
  8
0
 62
     0
 48
0.3
100
AcDbLine
 10
500.6630827348012
 20
1284.57902171044
 30
0.0
 11
500.6630827348012
 21
1284.57902171044
 31
0.0
  0
LINE
  5
A3E4
330
1F
100
AcDbEntity
  8
0
 62
     0
 48
0.3
100
AcDbLine
 10
499.4630827348012
 20
1284.57902171044
 30
0.0
 11
499.4630827348012
 21
1284.57902171044
 31
0.0
  0
LINE
  5
A3E5
330
1F
100
AcDbEntity
  8
0
 62
     0
 48
0.3
100
AcDbLine
 10
501.8630827348012
 20
1284.57902171044
 30
0.0
 11
501.8630827348012
 21
1284.57902171044
 31
0.0
  0
ARC
  5
A3E6
330
1F
100
AcDbEntity
  8
0
 62
     0
 48
0.3
100
AcDbCircle
 10
501.2639050139484
 20
1284.610423284186
 30
0.0
 40
0.5999999999999944
100
AcDbArc
 50
176.9999999999944
 51
357.0000000000074
  0
LINE
  5
A3E7
330
1F
100
AcDbEntity
  8
0
 62
     0
 48
0.3
100
AcDbLine
 10
499.9252837080336
 20
1293.429764763772
 30
0.0
 11
499.4647272930957
 21
1284.641824857932
 31
0.0
  0
LINE
  5
A3E8
330
1F
100
AcDbEntity
  8
0
 62
     0
 48
0.3
100
AcDbLine
 10
499.4630827348012
 20
1284.57902171044
 30
0.0
 11
499.9236391497391
 21
1293.366961616281
 31
0.0
  0
LINE
  5
A3E9
330
1F
100
AcDbEntity
  8
0
 62
     0
 48
0.3
100
AcDbLine
 10
501.1252837080336
 20
1293.429764763772
 30
0.0
 11
500.6647272930957
 21
1284.641824857932
 31
0.0
  0
LINE
  5
A3EA
330
1F
100
AcDbEntity
  8
0
 62
     0
 48
0.3
100
AcDbLine
 10
500.6630827348012
 20
1284.57902171044
 30
0.0
 11
501.1236391497391
 21
1293.366961616281
 31
0.0
  0
LINE
  5
A3EB
330
1F
100
AcDbEntity
  8
0
 62
     0
 48
0.3
100
AcDbLine
 10
502.3252837080336
 20
1293.429764763772
 30
0.0
 11
501.8647272930957
 21
1284.641824857932
 31
0.0
  0
LINE
  5
A3EC
330
1F
100
AcDbEntity
  8
0
 62
     0
 48
0.3
100
AcDbLine
 10
501.8630827348012
 20
1284.57902171044
 30
0.0
 11
502.3236391497391
 21
1293.366961616281
 31
0.0
  0
ARC
  5
A3ED
330
1F
100
AcDbEntity
  8
0
 62
     0
 48
0.3
100
AcDbCircle
 10
498.0881271926334
 20
1292.736487767523
 30
0.0
 40
0.5999999999999944
100
AcDbArc
 50
356.9999999999943
 51
176.9999999999944
  0
ARC
  5
A3EE
330
1F
100
AcDbEntity
  8
0
 62
     0
 48
0.3
100
AcDbCircle
 10
495.6144264348989
 20
1291.393039746965
 30
0.0
 40
0.5999999999999944
100
AcDbArc
 50
356.9999999999943
 51
176.9999999999944
  0
ARC
  5
A3EF
330
1F
100
AcDbEntity
  8
0
 62
     0
 48
0.3
100
AcDbCircle
 10
496.8541985648022
 20
1292.120514088131
 30
0.0
 40
0.5999999999999944
100
AcDbArc
 50
356.9999999999943
 51
176.9999999999944
  0
ARC
  5
A3F0
330
1F
100
AcDbEntity
  8
0
 62
     0
 48
0.3
100
AcDbCircle
 10
497.7075417082913
 20
1285.474484119425
 30
0.0
 40
0.5999999999999944
100
AcDbArc
 50
176.9999999999944
 51
357.0000000000074
  0
ARC
  5
A3F1
330
1F
100
AcDbEntity
  8
0
 62
     0
 48
0.3
100
AcDbCircle
 10
496.5427315392319
 20
1286.208792305387
 30
0.0
 40
0.5999999999999944
100
AcDbArc
 50
176.9999999999944
 51
357.0000000000074
  0
LINE
  5
A3F2
330
1F
100
AcDbEntity
  8
0
 62
     0
 48
0.3
100
AcDbLine
 10
495.9833259482826
 20
1286.967668220299
 30
0.0
 11
495.9833259482826
 21
1286.967668220299
 31
0.0
  0
LINE
  5
A3F3
330
1F
100
AcDbEntity
  8
0
 62
     0
 48
0.3
100
AcDbLine
 10
497.1419092600847
 20
1286.177390731642
 30
0.0
 11
497.1419092600847
 21
1286.177390731642
 31
0.0
  0
LINE
  5
A3F4
330
1F
100
AcDbEntity
  8
0
 62
     0
 48
0.3
100
AcDbLine
 10
498.306719429144
 20
1285.443082545679
 30
0.0
 11
498.306719429144
 21
1285.443082545679
 31
0.0
  0
LINE
  5
A3F5
330
1F
100
AcDbEntity
  8
0
 62
     0
 48
0.3
100
AcDbLine
 10
496.2550208439495
 20
1292.151915661877
 30
0.0
 11
495.9451961228637
 21
1286.240107809602
 31
0.0
  0
LINE
  5
A3F6
330
1F
100
AcDbEntity
  8
0
 62
     0
 48
0.3
100
AcDbLine
 10
496.215248714046
 20
1291.424441320711
 30
0.0
 11
495.9849705065771
 21
1287.030471367791
 31
0.0
  0
LINE
  5
A3F7
330
1F
100
AcDbEntity
  8
0
 62
     0
 48
0.3
100
AcDbLine
 10
495.9866128110617
 20
1287.03038529826
 30
0.0
 11
496.2136041557515
 21
1291.36163817322
 31
0.0
  0
LINE
  5
A3F8
330
1F
100
AcDbEntity
  8
0
 62
     0
 48
0.3
100
AcDbLine
 10
497.4550208439494
 20
1292.151915661877
 30
0.0
 11
497.1406514376902
 21
1286.153390050605
 31
0.0
  0
LINE
  5
A3F9
330
1F
100
AcDbEntity
  8
0
 62
     0
 48
0.3
100
AcDbLine
 10
497.1422937421748
 20
1286.153303981074
 30
0.0
 11
497.453376285655
 21
1292.089112514386
 31
0.0
  0
LINE
  5
A3FA
330
1F
100
AcDbEntity
  8
0
 62
     0
 48
0.3
100
AcDbLine
 10
498.7252837080336
 20
1293.429764763772
 30
0.0
 11
498.2647272930957
 21
1284.641824857932
 31
0.0
  0
LINE
  5
A3FB
330
1F
100
AcDbEntity
  8
0
 62
     0
 48
0.3
100
AcDbLine
 10
497.4889494717807
 20
1292.767889341269
 30
0.0
 11
497.106720556049
 21
1285.474527154191
 31
0.0
  0
LINE
  5
A3FC
330
1F
100
AcDbEntity
  8
0
 62
     0
 48
0.3
100
AcDbLine
 10
498.6889494717806
 20
1292.767889341269
 30
0.0
 11
498.3027537586784
 21
1285.398836151349
 31
0.0
  0
LINE
  5
A3FD
330
1F
100
AcDbEntity
  8
0
 62
     0
 48
0.3
100
AcDbLine
 10
498.306719429144
 20
1285.443082545679
 30
0.0
 11
498.6873049134863
 21
1292.705086193778
 31
0.0
  0
ARC
  5
A3FE
330
1F
100
AcDbEntity
  8
0
 62
     0
 48
0.3
100
AcDbCircle
 10
498.8639050139485
 20
1284.610423284186
 30
0.0
 40
0.5999999999999944
100
AcDbArc
 50
176.9999999999944
 51
357.0000000000074
  0
ARC
  5
A3FF
330
1F
100
AcDbEntity
  8
0
 62
     0
 48
0.3
100
AcDbCircle
 10
518.7744614288864
 20
1293.398363190026
 30
0.0
 40
0.5999999999999944
100
AcDbArc
 50
356.9999999999943
 51
176.9999999999944
  0
ARC
  5
A400
330
1F
100
AcDbEntity
  8
0
 62
     0
 48
0.3
100
AcDbCircle
 10
518.3139050139486
 20
1284.610423284186
 30
0.0
 40
0.5999999999999944
100
AcDbArc
 50
176.9999999999944
 51
357.0000000000074
  0
ARC
  5
A401
330
1F
100
AcDbEntity
  8
0
 62
     0
 48
0.3
100
AcDbCircle
 10
510.1244614288864
 20
1293.398363190026
 30
0.0
 40
0.5999999999999944
100
AcDbArc
 50
356.9999999999943
 51
176.9999999999944
  0
ARC
  5
A402
330
1F
100
AcDbEntity
  8
0
 62
     0
 48
0.3
100
AcDbCircle
 10
510.8639050139485
 20
1284.610423284186
 30
0.0
 40
0.5999999999999944
100
AcDbArc
 50
176.9999999999944
 51
357.0000000000074
  0
LINE
  5
A403
330
1F
100
AcDbEntity
  8
0
 62
     0
 48
0.3
100
AcDbLine
 10
510.7252837080336
 20
1293.429764763772
 30
0.0
 11
510.2647272930957
 21
1284.641824857932
 31
0.0
  0
LINE
  5
A404
330
1F
100
AcDbEntity
  8
0
 62
     0
 48
0.3
100
AcDbLine
 10
510.2630827348012
 20
1284.57902171044
 30
0.0
 11
510.7236391497391
 21
1293.366961616281
 31
0.0
  0
ARC
  5
A405
330
1F
100
AcDbEntity
  8
0
 62
     0
 48
0.3
100
AcDbCircle
 10
508.9244614288864
 20
1293.398363190026
 30
0.0
 40
0.5999999999999944
100
AcDbArc
 50
356.9999999999943
 51
176.9999999999944
  0
ARC
  5
A406
330
1F
100
AcDbEntity
  8
0
 62
     0
 48
0.3
100
AcDbCircle
 10
509.6639050139485
 20
1284.610423284186
 30
0.0
 40
0.5999999999999944
100
AcDbArc
 50
176.9999999999944
 51
357.0000000000074
  0
ARC
  5
A407
330
1F
100
AcDbEntity
  8
0
 62
     0
 48
0.3
100
AcDbCircle
 10
508.4639050139485
 20
1284.610423284186
 30
0.0
 40
0.5999999999999944
100
AcDbArc
 50
176.9999999999944
 51
357.0000000000074
  0
LINE
  5
A408
330
1F
100
AcDbEntity
  8
0
 62
     0
 48
0.3
100
AcDbLine
 10
510.2630827348012
 20
1284.57902171044
 30
0.0
 11
510.2630827348012
 21
1284.57902171044
 31
0.0
  0
LINE
  5
A409
330
1F
100
AcDbEntity
  8
0
 62
     0
 48
0.3
100
AcDbLine
 10
509.0630827348012
 20
1284.57902171044
 30
0.0
 11
509.0630827348012
 21
1284.57902171044
 31
0.0
  0
LINE
  5
A40A
330
1F
100
AcDbEntity
  8
0
 62
     0
 48
0.3
100
AcDbLine
 10
507.8630827348011
 20
1284.57902171044
 30
0.0
 11
507.8630827348011
 21
1284.57902171044
 31
0.0
  0
LINE
  5
A40B
330
1F
100
AcDbEntity
  8
0
 62
     0
 48
0.3
100
AcDbLine
 10
509.5252837080336
 20
1293.429764763772
 30
0.0
 11
509.0647272930957
 21
1284.641824857932
 31
0.0
  0
LINE
  5
A40C
330
1F
100
AcDbEntity
  8
0
 62
     0
 48
0.3
100
AcDbLine
 10
509.0630827348012
 20
1284.57902171044
 30
0.0
 11
509.5236391497392
 21
1293.366961616281
 31
0.0
  0
LINE
  5
A40D
330
1F
100
AcDbEntity
  8
0
 62
     0
 48
0.3
100
AcDbLine
 10
508.3252837080336
 20
1293.429764763772
 30
0.0
 11
507.8647272930957
 21
1284.641824857932
 31
0.0
  0
LINE
  5
A40E
330
1F
100
AcDbEntity
  8
0
 62
     0
 48
0.3
100
AcDbLine
 10
507.8630827348011
 20
1284.57902171044
 30
0.0
 11
508.3236391497392
 21
1293.366961616281
 31
0.0
  0
ARC
  5
A40F
330
1F
100
AcDbEntity
  8
0
 62
     0
 48
0.3
100
AcDbCircle
 10
506.5244614288864
 20
1293.398363190026
 30
0.0
 40
0.5999999999999944
100
AcDbArc
 50
356.9999999999943
 51
176.9999999999944
  0
ARC
  5
A410
330
1F
100
AcDbEntity
  8
0
 62
     0
 48
0.3
100
AcDbCircle
 10
506.0639050139485
 20
1284.610423284186
 30
0.0
 40
0.5999999999999944
100
AcDbArc
 50
176.9999999999944
 51
357.0000000000074
  0
ARC
  5
A411
330
1F
100
AcDbEntity
  8
0
 62
     0
 48
0.3
100
AcDbCircle
 10
505.3244614288864
 20
1293.398363190026
 30
0.0
 40
0.5999999999999944
100
AcDbArc
 50
356.9999999999943
 51
176.9999999999944
  0
ARC
  5
A412
330
1F
100
AcDbEntity
  8
0
 62
     0
 48
0.3
100
AcDbCircle
 10
504.1244614288864
 20
1293.398363190026
 30
0.0
 40
0.5999999999999944
100
AcDbArc
 50
356.9999999999943
 51
176.9999999999944
  0
ARC
  5
A413
330
1F
100
AcDbEntity
  8
0
 62
     0
 48
0.3
100
AcDbCircle
 10
504.8639050139485
 20
1284.610423284186
 30
0.0
 40
0.5999999999999944
100
AcDbArc
 50
176.9999999999944
 51
357.0000000000074
  0
ARC
  5
A414
330
1F
100
AcDbEntity
  8
0
 62
     0
 48
0.3
100
AcDbCircle
 10
503.6639050139484
 20
1284.610423284186
 30
0.0
 40
0.5999999999999944
100
AcDbArc
 50
176.9999999999944
 51
357.0000000000074
  0
LINE
  5
A415
330
1F
100
AcDbEntity
  8
0
 62
     0
 48
0.3
100
AcDbLine
 10
505.4630827348012
 20
1284.57902171044
 30
0.0
 11
505.4630827348012
 21
1284.57902171044
 31
0.0
  0
LINE
  5
A416
330
1F
100
AcDbEntity
  8
0
 62
     0
 48
0.3
100
AcDbLine
 10
504.2630827348013
 20
1284.57902171044
 30
0.0
 11
504.2630827348013
 21
1284.57902171044
 31
0.0
  0
LINE
  5
A417
330
1F
100
AcDbEntity
  8
0
 62
     0
 48
0.3
100
AcDbLine
 10
503.0630827348012
 20
1284.57902171044
 30
0.0
 11
503.0630827348012
 21
1284.57902171044
 31
0.0
  0
LINE
  5
A418
330
1F
100
AcDbEntity
  8
0
 62
     0
 48
0.3
100
AcDbLine
 10
505.9252837080337
 20
1293.429764763772
 30
0.0
 11
505.4647272930957
 21
1284.641824857932
 31
0.0
  0
LINE
  5
A419
330
1F
100
AcDbEntity
  8
0
 62
     0
 48
0.3
100
AcDbLine
 10
505.4630827348012
 20
1284.57902171044
 30
0.0
 11
505.9236391497392
 21
1293.366961616281
 31
0.0
  0
LINE
  5
A41A
330
1F
100
AcDbEntity
  8
0
 62
     0
 48
0.3
100
AcDbLine
 10
504.7252837080336
 20
1293.429764763772
 30
0.0
 11
504.2647272930958
 21
1284.641824857932
 31
0.0
  0
LINE
  5
A41B
330
1F
100
AcDbEntity
  8
0
 62
     0
 48
0.3
100
AcDbLine
 10
504.2630827348013
 20
1284.57902171044
 30
0.0
 11
504.7236391497391
 21
1293.366961616281
 31
0.0
  0
LINE
  5
A41C
330
1F
100
AcDbEntity
  8
0
 62
     0
 48
0.3
100
AcDbLine
 10
503.5252837080336
 20
1293.429764763772
 30
0.0
 11
503.0647272930957
 21
1284.641824857932
 31
0.0
  0
LINE
  5
A41D
330
1F
100
AcDbEntity
  8
0
 62
     0
 48
0.3
100
AcDbLine
 10
503.0630827348012
 20
1284.57902171044
 30
0.0
 11
503.5236391497392
 21
1293.366961616281
 31
0.0
  0
LINE
  5
A41E
330
1F
100
AcDbEntity
  8
0
 62
     0
 48
0.3
100
AcDbLine
 10
506.6630827348013
 20
1284.57902171044
 30
0.0
 11
506.6630827348013
 21
1284.57902171044
 31
0.0
  0
LINE
  5
A41F
330
1F
100
AcDbEntity
  8
0
 62
     0
 48
0.3
100
AcDbLine
 10
507.1252837080336
 20
1293.429764763772
 30
0.0
 11
506.6647272930957
 21
1284.641824857932
 31
0.0
  0
LINE
  5
A420
330
1F
100
AcDbEntity
  8
0
 62
     0
 48
0.3
100
AcDbLine
 10
506.6630827348013
 20
1284.57902171044
 30
0.0
 11
507.1236391497391
 21
1293.366961616281
 31
0.0
  0
ARC
  5
A421
330
1F
100
AcDbEntity
  8
0
 62
     0
 48
0.3
100
AcDbCircle
 10
507.7244614288864
 20
1293.398363190026
 30
0.0
 40
0.5999999999999944
100
AcDbArc
 50
356.9999999999943
 51
176.9999999999944
  0
ARC
  5
A422
330
1F
100
AcDbEntity
  8
0
 62
     0
 48
0.3
100
AcDbCircle
 10
507.2639050139485
 20
1284.610423284186
 30
0.0
 40
0.5999999999999944
100
AcDbArc
 50
176.9999999999944
 51
357.0000000000074
  0
ARC
  5
A423
330
1F
100
AcDbEntity
  8
0
 62
     0
 48
0.3
100
AcDbCircle
 10
513.7744614288863
 20
1293.398363190026
 30
0.0
 40
0.5999999999999944
100
AcDbArc
 50
356.9999999999943
 51
176.9999999999944
  0
ARC
  5
A424
330
1F
100
AcDbEntity
  8
0
 62
     0
 48
0.3
100
AcDbCircle
 10
512.5244614288864
 20
1293.398363190026
 30
0.0
 40
0.5999999999999944
100
AcDbArc
 50
356.9999999999943
 51
176.9999999999944
  0
ARC
  5
A425
330
1F
100
AcDbEntity
  8
0
 62
     0
 48
0.3
100
AcDbCircle
 10
516.2744614288864
 20
1293.398363190026
 30
0.0
 40
0.5999999999999944
100
AcDbArc
 50
356.9999999999943
 51
176.9999999999944
  0
ARC
  5
A426
330
1F
100
AcDbEntity
  8
0
 62
     0
 48
0.3
100
AcDbCircle
 10
515.0244614288864
 20
1293.398363190026
 30
0.0
 40
0.5999999999999944
100
AcDbArc
 50
356.9999999999943
 51
176.9999999999944
  0
ARC
  5
A427
330
1F
100
AcDbEntity
  8
0
 62
     0
 48
0.3
100
AcDbCircle
 10
517.5244614288864
 20
1293.398363190026
 30
0.0
 40
0.5999999999999944
100
AcDbArc
 50
356.9999999999943
 51
176.9999999999944
  0
ARC
  5
A428
330
1F
100
AcDbEntity
  8
0
 62
     0
 48
0.3
100
AcDbCircle
 10
511.3244614288865
 20
1293.398363190026
 30
0.0
 40
0.5999999999999944
100
AcDbArc
 50
356.9999999999943
 51
176.9999999999944
  0
LINE
  5
A429
330
1F
100
AcDbEntity
  8
0
 62
     0
 48
0.3
100
AcDbLine
 10
517.7130827348012
 20
1284.57902171044
 30
0.0
 11
518.1736391497391
 21
1293.366961616281
 31
0.0
  0
LINE
  5
A42A
330
1F
100
AcDbEntity
  8
0
 62
     0
 48
0.3
100
AcDbLine
 10
518.1752837080336
 20
1293.429764763772
 30
0.0
 11
517.7147272930957
 21
1284.641824857932
 31
0.0
  0
ARC
  5
A42B
330
1F
100
AcDbEntity
  8
0
 62
     0
 48
0.3
100
AcDbCircle
 10
514.5639050139485
 20
1284.610423284186
 30
0.0
 40
0.5999999999999944
100
AcDbArc
 50
176.9999999999944
 51
357.0000000000074
  0
ARC
  5
A42C
330
1F
100
AcDbEntity
  8
0
 62
     0
 48
0.3
100
AcDbCircle
 10
513.3139050139485
 20
1284.610423284186
 30
0.0
 40
0.5999999999999944
100
AcDbArc
 50
176.9999999999944
 51
357.0000000000074
  0
ARC
  5
A42D
330
1F
100
AcDbEntity
  8
0
 62
     0
 48
0.3
100
AcDbCircle
 10
512.0639050139486
 20
1284.610423284186
 30
0.0
 40
0.5999999999999944
100
AcDbArc
 50
176.9999999999944
 51
357.0000000000074
  0
LINE
  5
A42E
330
1F
100
AcDbEntity
  8
0
 62
     0
 48
0.3
100
AcDbLine
 10
512.7130827348012
 20
1284.57902171044
 30
0.0
 11
512.7130827348012
 21
1284.57902171044
 31
0.0
  0
LINE
  5
A42F
330
1F
100
AcDbEntity
  8
0
 62
     0
 48
0.3
100
AcDbLine
 10
511.4630827348012
 20
1284.57902171044
 30
0.0
 11
511.4630827348012
 21
1284.57902171044
 31
0.0
  0
LINE
  5
A430
330
1F
100
AcDbEntity
  8
0
 62
     0
 48
0.3
100
AcDbLine
 10
513.9630827348012
 20
1284.57902171044
 30
0.0
 11
513.9630827348012
 21
1284.57902171044
 31
0.0
  0
ARC
  5
A431
330
1F
100
AcDbEntity
  8
0
 62
     0
 48
0.3
100
AcDbCircle
 10
515.8139050139485
 20
1284.610423284186
 30
0.0
 40
0.5999999999999944
100
AcDbArc
 50
176.9999999999944
 51
357.0000000000074
  0
ARC
  5
A432
330
1F
100
AcDbEntity
  8
0
 62
     0
 48
0.3
100
AcDbCircle
 10
517.0639050139485
 20
1284.610423284186
 30
0.0
 40
0.5999999999999944
100
AcDbArc
 50
176.9999999999944
 51
357.0000000000074
  0
LINE
  5
A433
330
1F
100
AcDbEntity
  8
0
 62
     0
 48
0.3
100
AcDbLine
 10
516.4630827348012
 20
1284.57902171044
 30
0.0
 11
516.4630827348012
 21
1284.57902171044
 31
0.0
  0
LINE
  5
A434
330
1F
100
AcDbEntity
  8
0
 62
     0
 48
0.3
100
AcDbLine
 10
515.2130827348011
 20
1284.57902171044
 30
0.0
 11
515.2130827348011
 21
1284.57902171044
 31
0.0
  0
LINE
  5
A435
330
1F
100
AcDbEntity
  8
0
 62
     0
 48
0.3
100
AcDbLine
 10
517.7130827348012
 20
1284.57902171044
 30
0.0
 11
517.7130827348012
 21
1284.57902171044
 31
0.0
  0
LINE
  5
A436
330
1F
100
AcDbEntity
  8
0
 62
     0
 48
0.3
100
AcDbLine
 10
511.9252837080336
 20
1293.429764763772
 30
0.0
 11
511.4647272930957
 21
1284.641824857932
 31
0.0
  0
LINE
  5
A437
330
1F
100
AcDbEntity
  8
0
 62
     0
 48
0.3
100
AcDbLine
 10
511.4630827348012
 20
1284.57902171044
 30
0.0
 11
511.9236391497391
 21
1293.366961616281
 31
0.0
  0
LINE
  5
A438
330
1F
100
AcDbEntity
  8
0
 62
     0
 48
0.3
100
AcDbLine
 10
512.7130827348012
 20
1284.57902171044
 30
0.0
 11
513.1736391497391
 21
1293.366961616281
 31
0.0
  0
LINE
  5
A439
330
1F
100
AcDbEntity
  8
0
 62
     0
 48
0.3
100
AcDbLine
 10
513.1752837080337
 20
1293.429764763772
 30
0.0
 11
512.7147272930957
 21
1284.641824857932
 31
0.0
  0
LINE
  5
A43A
330
1F
100
AcDbEntity
  8
0
 62
     0
 48
0.3
100
AcDbLine
 10
516.4630827348012
 20
1284.57902171044
 30
0.0
 11
516.9236391497391
 21
1293.366961616281
 31
0.0
  0
LINE
  5
A43B
330
1F
100
AcDbEntity
  8
0
 62
     0
 48
0.3
100
AcDbLine
 10
516.9252837080336
 20
1293.429764763772
 30
0.0
 11
516.4647272930957
 21
1284.641824857932
 31
0.0
  0
LINE
  5
A43C
330
1F
100
AcDbEntity
  8
0
 62
     0
 48
0.3
100
AcDbLine
 10
513.9630827348012
 20
1284.57902171044
 30
0.0
 11
514.4236391497392
 21
1293.366961616281
 31
0.0
  0
LINE
  5
A43D
330
1F
100
AcDbEntity
  8
0
 62
     0
 48
0.3
100
AcDbLine
 10
514.4252837080337
 20
1293.429764763772
 30
0.0
 11
513.9647272930957
 21
1284.641824857932
 31
0.0
  0
LINE
  5
A43E
330
1F
100
AcDbEntity
  8
0
 62
     0
 48
0.3
100
AcDbLine
 10
515.2130827348011
 20
1284.57902171044
 30
0.0
 11
515.6736391497392
 21
1293.366961616281
 31
0.0
  0
LINE
  5
A43F
330
1F
100
AcDbEntity
  8
0
 62
     0
 48
0.3
100
AcDbLine
 10
515.6752837080337
 20
1293.429764763772
 30
0.0
 11
515.2147272930957
 21
1284.641824857932
 31
0.0
  0
ARC
  5
A440
330
1F
100
AcDbEntity
  8
0
 62
     0
 48
0.3
100
AcDbCircle
 10
526.1244614288864
 20
1293.398363190026
 30
0.0
 40
0.5999999999999944
100
AcDbArc
 50
356.9999999999943
 51
176.9999999999944
  0
ARC
  5
A441
330
1F
100
AcDbEntity
  8
0
 62
     0
 48
0.3
100
AcDbCircle
 10
525.6639050139484
 20
1284.610423284186
 30
0.0
 40
0.5999999999999944
100
AcDbArc
 50
176.9999999999944
 51
357.0000000000074
  0
ARC
  5
A442
330
1F
100
AcDbEntity
  8
0
 62
     0
 48
0.3
100
AcDbCircle
 10
523.7244614288864
 20
1293.398363190026
 30
0.0
 40
0.5999999999999944
100
AcDbArc
 50
356.9999999999943
 51
176.9999999999944
  0
ARC
  5
A443
330
1F
100
AcDbEntity
  8
0
 62
     0
 48
0.3
100
AcDbCircle
 10
524.9244614288864
 20
1293.398363190026
 30
0.0
 40
0.5999999999999944
100
AcDbArc
 50
356.9999999999943
 51
176.9999999999944
  0
ARC
  5
A444
330
1F
100
AcDbEntity
  8
0
 62
     0
 48
0.3
100
AcDbCircle
 10
524.4639050139485
 20
1284.610423284186
 30
0.0
 40
0.5999999999999944
100
AcDbArc
 50
176.9999999999944
 51
357.0000000000074
  0
LINE
  5
A445
330
1F
100
AcDbEntity
  8
0
 62
     0
 48
0.3
100
AcDbLine
 10
525.0630827348012
 20
1284.57902171044
 30
0.0
 11
525.0630827348012
 21
1284.57902171044
 31
0.0
  0
LINE
  5
A446
330
1F
100
AcDbEntity
  8
0
 62
     0
 48
0.3
100
AcDbLine
 10
523.8630827348011
 20
1284.57902171044
 30
0.0
 11
523.8630827348011
 21
1284.57902171044
 31
0.0
  0
LINE
  5
A447
330
1F
100
AcDbEntity
  8
0
 62
     0
 48
0.3
100
AcDbLine
 10
524.3252837080336
 20
1293.429764763772
 30
0.0
 11
523.8647272930957
 21
1284.641824857932
 31
0.0
  0
LINE
  5
A448
330
1F
100
AcDbEntity
  8
0
 62
     0
 48
0.3
100
AcDbLine
 10
523.8630827348011
 20
1284.57902171044
 30
0.0
 11
524.3236391497391
 21
1293.366961616281
 31
0.0
  0
LINE
  5
A449
330
1F
100
AcDbEntity
  8
0
 62
     0
 48
0.3
100
AcDbLine
 10
525.5252837080336
 20
1293.429764763772
 30
0.0
 11
525.0647272930957
 21
1284.641824857932
 31
0.0
  0
LINE
  5
A44A
330
1F
100
AcDbEntity
  8
0
 62
     0
 48
0.3
100
AcDbLine
 10
525.0630827348012
 20
1284.57902171044
 30
0.0
 11
525.5236391497391
 21
1293.366961616281
 31
0.0
  0
ARC
  5
A44B
330
1F
100
AcDbEntity
  8
0
 62
     0
 48
0.3
100
AcDbCircle
 10
520.0244614288863
 20
1293.398363190026
 30
0.0
 40
0.5999999999999944
100
AcDbArc
 50
356.9999999999943
 51
176.9999999999944
  0
ARC
  5
A44C
330
1F
100
AcDbEntity
  8
0
 62
     0
 48
0.3
100
AcDbCircle
 10
521.2744614288864
 20
1293.398363190026
 30
0.0
 40
0.5999999999999944
100
AcDbArc
 50
356.9999999999943
 51
176.9999999999944
  0
LINE
  5
A44D
330
1F
100
AcDbEntity
  8
0
 62
     0
 48
0.3
100
AcDbLine
 10
522.6630827348012
 20
1284.57902171044
 30
0.0
 11
522.6630827348012
 21
1284.57902171044
 31
0.0
  0
ARC
  5
A44E
330
1F
100
AcDbEntity
  8
0
 62
     0
 48
0.3
100
AcDbCircle
 10
520.8139050139485
 20
1284.610423284186
 30
0.0
 40
0.5999999999999944
100
AcDbArc
 50
176.9999999999944
 51
357.0000000000074
  0
LINE
  5
A44F
330
1F
100
AcDbEntity
  8
0
 62
     0
 48
0.3
100
AcDbLine
 10
518.9630827348012
 20
1284.57902171044
 30
0.0
 11
518.9630827348012
 21
1284.57902171044
 31
0.0
  0
LINE
  5
A450
330
1F
100
AcDbEntity
  8
0
 62
     0
 48
0.3
100
AcDbLine
 10
520.2130827348012
 20
1284.57902171044
 30
0.0
 11
520.2130827348012
 21
1284.57902171044
 31
0.0
  0
LINE
  5
A451
330
1F
100
AcDbEntity
  8
0
 62
     0
 48
0.3
100
AcDbLine
 10
521.4630827348011
 20
1284.57902171044
 30
0.0
 11
521.4630827348011
 21
1284.57902171044
 31
0.0
  0
ARC
  5
A452
330
1F
100
AcDbEntity
  8
0
 62
     0
 48
0.3
100
AcDbCircle
 10
519.5639050139485
 20
1284.610423284186
 30
0.0
 40
0.5999999999999944
100
AcDbArc
 50
176.9999999999944
 51
357.0000000000074
  0
ARC
  5
A453
330
1F
100
AcDbEntity
  8
0
 62
     0
 48
0.3
100
AcDbCircle
 10
522.0639050139485
 20
1284.610423284186
 30
0.0
 40
0.5999999999999944
100
AcDbArc
 50
176.9999999999944
 51
357.0000000000074
  0
LINE
  5
A454
330
1F
100
AcDbEntity
  8
0
 62
     0
 48
0.3
100
AcDbLine
 10
518.9630827348012
 20
1284.57902171044
 30
0.0
 11
519.4236391497391
 21
1293.366961616281
 31
0.0
  0
LINE
  5
A455
330
1F
100
AcDbEntity
  8
0
 62
     0
 48
0.3
100
AcDbLine
 10
519.4252837080337
 20
1293.429764763772
 30
0.0
 11
518.9647272930957
 21
1284.641824857932
 31
0.0
  0
LINE
  5
A456
330
1F
100
AcDbEntity
  8
0
 62
     0
 48
0.3
100
AcDbLine
 10
520.2130827348012
 20
1284.57902171044
 30
0.0
 11
520.6736391497392
 21
1293.366961616281
 31
0.0
  0
LINE
  5
A457
330
1F
100
AcDbEntity
  8
0
 62
     0
 48
0.3
100
AcDbLine
 10
520.6752837080337
 20
1293.429764763772
 30
0.0
 11
520.2147272930957
 21
1284.641824857932
 31
0.0
  0
LINE
  5
A458
330
1F
100
AcDbEntity
  8
0
 62
     0
 48
0.3
100
AcDbLine
 10
521.4630827348011
 20
1284.57902171044
 30
0.0
 11
521.9236391497392
 21
1293.366961616281
 31
0.0
  0
LINE
  5
A459
330
1F
100
AcDbEntity
  8
0
 62
     0
 48
0.3
100
AcDbLine
 10
521.9252837080337
 20
1293.429764763772
 30
0.0
 11
521.4647272930957
 21
1284.641824857932
 31
0.0
  0
ARC
  5
A45A
330
1F
100
AcDbEntity
  8
0
 62
     0
 48
0.3
100
AcDbCircle
 10
522.5244614288864
 20
1293.398363190026
 30
0.0
 40
0.5999999999999944
100
AcDbArc
 50
356.9999999999943
 51
176.9999999999944
  0
ARC
  5
A45B
330
1F
100
AcDbEntity
  8
0
 62
     0
 48
0.3
100
AcDbCircle
 10
523.2639050139485
 20
1284.610423284186
 30
0.0
 40
0.5999999999999944
100
AcDbArc
 50
176.9999999999944
 51
357.0000000000074
  0
LINE
  5
A45C
330
1F
100
AcDbEntity
  8
0
 62
     0
 48
0.3
100
AcDbLine
 10
523.1252837080336
 20
1293.429764763772
 30
0.0
 11
522.6647272930957
 21
1284.641824857932
 31
0.0
  0
LINE
  5
A45D
330
1F
100
AcDbEntity
  8
0
 62
     0
 48
0.3
100
AcDbLine
 10
522.6630827348012
 20
1284.57902171044
 30
0.0
 11
523.123639149739
 21
1293.366961616281
 31
0.0
  0
ARC
  5
A45E
330
1F
100
AcDbEntity
  8
0
 62
     0
 48
0.3
100
AcDbCircle
 10
529.7244614288864
 20
1293.398363190026
 30
0.0
 40
0.5999999999999944
100
AcDbArc
 50
356.9999999999943
 51
176.9999999999944
  0
ARC
  5
A45F
330
1F
100
AcDbEntity
  8
0
 62
     0
 48
0.3
100
AcDbCircle
 10
529.2639050139484
 20
1284.610423284186
 30
0.0
 40
0.5999999999999944
100
AcDbArc
 50
176.9999999999944
 51
357.0000000000074
  0
ARC
  5
A460
330
1F
100
AcDbEntity
  8
0
 62
     0
 48
0.3
100
AcDbCircle
 10
527.3244614288865
 20
1293.398363190026
 30
0.0
 40
0.5999999999999944
100
AcDbArc
 50
356.9999999999943
 51
176.9999999999944
  0
ARC
  5
A461
330
1F
100
AcDbEntity
  8
0
 62
     0
 48
0.3
100
AcDbCircle
 10
528.5244614288863
 20
1293.398363190026
 30
0.0
 40
0.5999999999999944
100
AcDbArc
 50
356.9999999999943
 51
176.9999999999944
  0
ARC
  5
A462
330
1F
100
AcDbEntity
  8
0
 62
     0
 48
0.3
100
AcDbCircle
 10
528.0639050139485
 20
1284.610423284186
 30
0.0
 40
0.5999999999999944
100
AcDbArc
 50
176.9999999999944
 51
357.0000000000074
  0
LINE
  5
A463
330
1F
100
AcDbEntity
  8
0
 62
     0
 48
0.3
100
AcDbLine
 10
528.6630827348012
 20
1284.57902171044
 30
0.0
 11
528.6630827348012
 21
1284.57902171044
 31
0.0
  0
ARC
  5
A464
330
1F
100
AcDbEntity
  8
0
 62
     0
 48
0.3
100
AcDbCircle
 10
526.8639050139484
 20
1284.610423284186
 30
0.0
 40
0.5999999999999944
100
AcDbArc
 50
176.9999999999944
 51
357.0000000000074
  0
LINE
  5
A465
330
1F
100
AcDbEntity
  8
0
 62
     0
 48
0.3
100
AcDbLine
 10
527.4630827348012
 20
1284.57902171044
 30
0.0
 11
527.4630827348012
 21
1284.57902171044
 31
0.0
  0
LINE
  5
A466
330
1F
100
AcDbEntity
  8
0
 62
     0
 48
0.3
100
AcDbLine
 10
526.2630827348012
 20
1284.57902171044
 30
0.0
 11
526.2630827348012
 21
1284.57902171044
 31
0.0
  0
LINE
  5
A467
330
1F
100
AcDbEntity
  8
0
 62
     0
 48
0.3
100
AcDbLine
 10
527.9252837080337
 20
1293.429764763772
 30
0.0
 11
527.4647272930957
 21
1284.641824857932
 31
0.0
  0
LINE
  5
A468
330
1F
100
AcDbEntity
  8
0
 62
     0
 48
0.3
100
AcDbLine
 10
527.4630827348012
 20
1284.57902171044
 30
0.0
 11
527.9236391497391
 21
1293.366961616281
 31
0.0
  0
LINE
  5
A469
330
1F
100
AcDbEntity
  8
0
 62
     0
 48
0.3
100
AcDbLine
 10
529.1252837080336
 20
1293.429764763772
 30
0.0
 11
528.6647272930958
 21
1284.641824857932
 31
0.0
  0
LINE
  5
A46A
330
1F
100
AcDbEntity
  8
0
 62
     0
 48
0.3
100
AcDbLine
 10
528.6630827348012
 20
1284.57902171044
 30
0.0
 11
529.1236391497391
 21
1293.366961616281
 31
0.0
  0
LINE
  5
A46B
330
1F
100
AcDbEntity
  8
0
 62
     0
 48
0.3
100
AcDbLine
 10
526.7252837080336
 20
1293.429764763772
 30
0.0
 11
526.2647272930958
 21
1284.641824857932
 31
0.0
  0
LINE
  5
A46C
330
1F
100
AcDbEntity
  8
0
 62
     0
 48
0.3
100
AcDbLine
 10
526.2630827348012
 20
1284.57902171044
 30
0.0
 11
526.7236391497391
 21
1293.366961616281
 31
0.0
  0
ARC
  5
A46D
330
1F
100
AcDbEntity
  8
0
 62
     0
 48
0.3
100
AcDbCircle
 10
530.9244614288863
 20
1293.398363190026
 30
0.0
 40
0.5999999999999944
100
AcDbArc
 50
356.9999999999943
 51
176.9999999999944
  0
ARC
  5
A46E
330
1F
100
AcDbEntity
  8
0
 62
     0
 48
0.3
100
AcDbCircle
 10
532.1244614288864
 20
1293.398363190026
 30
0.0
 40
0.5999999999999944
100
AcDbArc
 50
356.9999999999943
 51
176.9999999999944
  0
ARC
  5
A46F
330
1F
100
AcDbEntity
  8
0
 62
     0
 48
0.3
100
AcDbCircle
 10
533.3244614288864
 20
1293.398363190026
 30
0.0
 40
0.5999999999999944
100
AcDbArc
 50
356.9999999999943
 51
176.9999999999944
  0
ARC
  5
A470
330
1F
100
AcDbEntity
  8
0
 62
     0
 48
0.3
100
AcDbCircle
 10
530.4639050139485
 20
1284.610423284186
 30
0.0
 40
0.5999999999999944
100
AcDbArc
 50
176.9999999999944
 51
357.0000000000074
  0
LINE
  5
A471
330
1F
100
AcDbEntity
  8
0
 62
     0
 48
0.3
100
AcDbLine
 10
529.8630827348012
 20
1284.57902171044
 30
0.0
 11
529.8630827348012
 21
1284.57902171044
 31
0.0
  0
ARC
  5
A472
330
1F
100
AcDbEntity
  8
0
 62
     0
 48
0.3
100
AcDbCircle
 10
532.8639050139485
 20
1284.610423284186
 30
0.0
 40
0.5999999999999944
100
AcDbArc
 50
176.9999999999944
 51
357.0000000000074
  0
ARC
  5
A473
330
1F
100
AcDbEntity
  8
0
 62
     0
 48
0.3
100
AcDbCircle
 10
531.6639050139484
 20
1284.610423284186
 30
0.0
 40
0.5999999999999944
100
AcDbArc
 50
176.9999999999944
 51
357.0000000000074
  0
LINE
  5
A474
330
1F
100
AcDbEntity
  8
0
 62
     0
 48
0.3
100
AcDbLine
 10
533.4630827348012
 20
1284.57902171044
 30
0.0
 11
533.4630827348012
 21
1284.57902171044
 31
0.0
  0
LINE
  5
A475
330
1F
100
AcDbEntity
  8
0
 62
     0
 48
0.3
100
AcDbLine
 10
532.2630827348013
 20
1284.57902171044
 30
0.0
 11
532.2630827348013
 21
1284.57902171044
 31
0.0
  0
LINE
  5
A476
330
1F
100
AcDbEntity
  8
0
 62
     0
 48
0.3
100
AcDbLine
 10
531.0630827348012
 20
1284.57902171044
 30
0.0
 11
531.0630827348012
 21
1284.57902171044
 31
0.0
  0
LINE
  5
A477
330
1F
100
AcDbEntity
  8
0
 62
     0
 48
0.3
100
AcDbLine
 10
530.3252837080337
 20
1293.429764763772
 30
0.0
 11
529.8647272930956
 21
1284.641824857932
 31
0.0
  0
LINE
  5
A478
330
1F
100
AcDbEntity
  8
0
 62
     0
 48
0.3
100
AcDbLine
 10
529.8630827348012
 20
1284.57902171044
 30
0.0
 11
530.3236391497391
 21
1293.366961616281
 31
0.0
  0
LINE
  5
A479
330
1F
100
AcDbEntity
  8
0
 62
     0
 48
0.3
100
AcDbLine
 10
533.9252837080336
 20
1293.429764763772
 30
0.0
 11
533.4647272930957
 21
1284.641824857932
 31
0.0
  0
LINE
  5
A47A
330
1F
100
AcDbEntity
  8
0
 62
     0
 48
0.3
100
AcDbLine
 10
533.4630827348012
 20
1284.57902171044
 30
0.0
 11
533.9236391497392
 21
1293.366961616281
 31
0.0
  0
LINE
  5
A47B
330
1F
100
AcDbEntity
  8
0
 62
     0
 48
0.3
100
AcDbLine
 10
532.7252837080336
 20
1293.429764763772
 30
0.0
 11
532.2647272930957
 21
1284.641824857932
 31
0.0
  0
LINE
  5
A47C
330
1F
100
AcDbEntity
  8
0
 62
     0
 48
0.3
100
AcDbLine
 10
532.2630827348013
 20
1284.57902171044
 30
0.0
 11
532.7236391497391
 21
1293.366961616281
 31
0.0
  0
LINE
  5
A47D
330
1F
100
AcDbEntity
  8
0
 62
     0
 48
0.3
100
AcDbLine
 10
531.5252837080335
 20
1293.429764763772
 30
0.0
 11
531.0647272930957
 21
1284.641824857932
 31
0.0
  0
LINE
  5
A47E
330
1F
100
AcDbEntity
  8
0
 62
     0
 48
0.3
100
AcDbLine
 10
531.0630827348012
 20
1284.57902171044
 30
0.0
 11
531.5236391497392
 21
1293.366961616281
 31
0.0
  0
ARC
  5
A483
330
1F
100
AcDbEntity
  8
0
 62
     0
 48
0.3
100
AcDbCircle
 10
549.3267673179624
 20
1289.010423284186
 30
0.0
 40
0.6
100
AcDbArc
 50
0.0
 51
90.0
  0
ARC
  5
A484
330
1F
100
AcDbEntity
  8
0
 62
     0
 48
0.3
100
AcDbCircle
 10
549.3267673179624
 20
1288.998363190026
 30
0.0
 40
0.6
100
AcDbArc
 50
270.0
 51
0.0
  0
LINE
  5
A488
330
1F
100
AcDbEntity
  8
0
 62
     0
 48
0.3
100
AcDbLine
 10
535.8122105067848
 20
1289.610423284186
 30
0.0
 11
549.3267673179624
 21
1289.610423284186
 31
0.0
  0
LINE
  5
A489
330
1F
100
AcDbEntity
  8
0
 62
     0
 48
0.3
100
AcDbLine
 10
535.8122105067848
 20
1288.398363190027
 30
0.0
 11
549.3267673179624
 21
1288.398363190027
 31
0.0
  0
ARC
  5
A48A
330
1F
100
AcDbEntity
  8
0
 62
     0
 48
0.3
100
AcDbCircle
 10
535.8122105067848
 20
1287.398363190026
 30
0.0
 40
2.212060094159767
100
AcDbArc
 50
90.0
 51
114.5715139227186
  0
LINE
  5
A48B
330
1F
100
AcDbEntity
  8
0
 62
     0
 48
0.3
100
AcDbLine
 10
534.6630827348012
 20
1284.57902171044
 30
0.0
 11
534.8135809720303
 21
1287.450699146269
 31
0.0
  0
LINE
  5
A48C
330
1F
100
AcDbEntity
  8
0
 62
     0
 48
0.3
100
AcDbLine
 10
534.8135809720303
 20
1287.450699146269
 30
0.0
 11
535.1236391497391
 21
1293.366961616281
 31
0.0
  0
ARC
  5
A48D
330
1F
100
AcDbEntity
  8
0
 62
     0
 48
0.3
100
AcDbCircle
 10
535.8122105067848
 20
1287.398363190026
 30
0.0
 40
1.0
100
AcDbArc
 50
90.0
 51
176.9999999999944
  0
LINE
  5
A497
330
1F
100
AcDbEntity
  8
0
 62
     0
 48
0.3
100
AcDbLine
 10
549.9267673179624
 20
1288.998363190026
 30
0.0
 11
549.9267673179624
 21
1289.010423284186
 31
0.0
  0
LINE
  5
A49A
330
1F
100
AcDbEntity
  8
0
 48
0.5
100
AcDbLine
 10
573.5491399282177
 20
1191.540751266739
 30
0.0
 11
573.5491399282178
 21
1131.540751266739
 31
0.0
  0
LINE
  5
A49C
330
1F
100
AcDbEntity
  8
0
 48
0.5
100
AcDbLine
 10
573.5491399282177
 20
1191.540751266739
 30
0.0
 11
575.5491399282177
 21
1191.540751266739
 31
0.0
  0
LINE
  5
A49D
330
1F
100
AcDbEntity
  8
0
 48
0.5
100
AcDbLine
 10
575.5491399282177
 20
1191.540751266739
 30
0.0
 11
576.5491399282177
 21
1191.540751266739
 31
0.0
  0
LINE
  5
A49E
330
1F
100
AcDbEntity
  8
0
 48
0.5
100
AcDbLine
 10
576.5491399282177
 20
1191.540751266739
 30
0.0
 11
576.5491399282177
 21
1131.540751266739
 31
0.0
  0
LINE
  5
A49F
330
1F
100
AcDbEntity
  8
0
 48
0.5
100
AcDbLine
 10
576.5491399282177
 20
1131.540751266739
 30
0.0
 11
573.5491399282178
 21
1131.540751266739
 31
0.0
  0
DIMENSION
  5
A4F4
330
1F
100
AcDbEntity
  8
0
 48
0.5
100
AcDbDimension
  2
*D2
 10
236.1120328371089
 20
918.4877644775459
 30
0.0
 11
254.9691756942518
 21
924.487764477546
 31
0.0
 70
    33
 71
     5
 42
1.800000000000011
  3
ISO-25
100
AcDbAlignedDimension
 13
234.3120328371089
 23
918.1914334505522
 33
0.0
 14
236.1120328371089
 24
918.1914334505522
 34
0.0
  0
LEADER
  5
A51D
330
1F
100
AcDbEntity
  8
0
 48
0.5
100
AcDbLeader
  3
ISO-25
 73
     0
 40
6.0
 41
10.57142857142856
 76
     2
 10
212.0951133619297
 20
961.6727794605399
 30
0.0
 10
234.0649815136698
 20
961.6727794605402
 30
0.0
340
A51E
213
0.0
223
-3.0
233
0.0
1001
ACAD
1000
DSTYLE
1002
{
1070
   147
1040
3.0
1070
    77
1070
     0
1002
}
  0
MTEXT
  5
A51E
102
{ACAD_REACTORS
330
A51D
102
}
330
1F
100
AcDbEntity
  8
0
 48
0.5
100
AcDbMText
 10
237.0649815136698
 20
964.6727794605402
 30
0.0
 40
6.0
 41
20.438
 71
     1
 72
     1
  1
M6
 73
     1
 44
1.0
  0
MTEXT
  5
A546
330
1F
100
AcDbEntity
  8
0
 48
0.5
100
AcDbMText
 10
357.7215549150596
 20
822.5308658634675
 30
0.0
 40
6.0
 41
170.9279999999999
 71
     4
 72
     5
  1
　防鳥ワイヤー　パイプ用 1.2
 73
     1
 44
1.0
  0
LINE
  5
A54C
330
1F
100
AcDbEntity
  8
0
 48
0.5
100
AcDbLine
 10
445.888485232137
 20
1191.540751266739
 30
0.0
 11
533.2398340899476
 21
1191.540751266739
 31
0.0
  0
LINE
  5
A54D
330
1F
100
AcDbEntity
  8
0
 48
0.5
100
AcDbLine
 10
445.888485232137
 20
1131.540751266739
 30
0.0
 11
533.2398340899476
 21
1131.540751266739
 31
0.0
  0
LINE
  5
A54E
330
1F
100
AcDbEntity
  8
0
 48
0.5
100
AcDbLine
 10
240.4805100634136
 20
1131.540751266739
 30
0.0
 11
291.4494480032976
 21
1131.540751266739
 31
0.0
  0
LINE
  5
A54F
330
1F
100
AcDbEntity
  8
0
 48
0.5
100
AcDbLine
 10
240.4805100634136
 20
1191.540751266739
 30
0.0
 11
291.4494480032976
 21
1191.540751266739
 31
0.0
  0
MTEXT
  5
A5D6
330
1F
100
AcDbEntity
  8
0
 48
0.5
100
AcDbMText
 10
545.2685264585429
 20
1014.355979912225
 30
0.0
 40
2.5
 41
157.5723
 71
     4
 72
     5
  1
　{\H2.4x;パイプサイズ}
 73
     1
 44
1.0
  0
MTEXT
  5
A5D8
330
1F
100
AcDbEntity
  8
0
 48
0.5
100
AcDbMText
 10
559.2555093804865
 20
994.7468713620196
 30
0.0
 40
6.0
 41
48.6603
 71
     5
 72
     5
  1
%%c21.7
 73
     1
 44
1.0
  0
MTEXT
  5
A5E2
330
1F
100
AcDbEntity
  8
0
 48
0.5
100
AcDbMText
 10
559.2555093804865
 20
982.7468713620197
 30
0.0
 40
6.0
 41
48.6603
 71
     5
 72
     5
  1
%%c27.2
 73
     1
 44
1.0
  0
MTEXT
  5
A5E3
330
1F
100
AcDbEntity
  8
0
 48
0.5
100
AcDbMText
 10
559.2555093804865
 20
970.7468713620196
 30
0.0
 40
6.0
 41
48.6603
 71
     5
 72
     5
  1
%%c34.0
 73
     1
 44
1.0
  0
MTEXT
  5
A5E4
330
1F
100
AcDbEntity
  8
0
 48
0.5
100
AcDbMText
 10
559.2555093804865
 20
958.7468713620197
 30
0.0
 40
6.0
 41
48.6603
 71
     5
 72
     5
  1
%%c42.7
 73
     1
 44
1.0
  0
MTEXT
  5
A5E5
330
1F
100
AcDbEntity
  8
0
 48
0.5
100
AcDbMText
 10
559.2555093804865
 20
946.7468713620196
 30
0.0
 40
6.0
 41
48.6603
 71
     5
 72
     5
  1
%%c48.6
 73
     1
 44
1.0
  0
MTEXT
  5
A5E6
330
1F
100
AcDbEntity
  8
0
 48
0.5
100
AcDbMText
 10
559.2555093804865
 20
934.7468713620196
 30
0.0
 40
6.0
 41
48.6603
 71
     5
 72
     5
  1
%%c60.5
 73
     1
 44
1.0
  0
MTEXT
  5
A5E7
330
1F
100
AcDbEntity
  8
0
 48
0.5
100
AcDbMText
 10
559.2555093804865
 20
922.7468713620195
 30
0.0
 40
6.0
 41
48.6603
 71
     5
 72
     5
  1
%%c76.3
 73
     1
 44
1.0
  0
MTEXT
  5
A5E8
330
1F
100
AcDbEntity
  8
0
 48
0.5
100
AcDbMText
 10
558.5555093804864
 20
910.7468713620196
 30
0.0
 40
6.0
 41
48.6603
 71
     5
 72
     5
  1
%%c89.1
 73
     1
 44
1.0
  0
MTEXT
  5
A5E9
330
1F
100
AcDbEntity
  8
0
 48
0.5
100
AcDbMText
 10
562.4109775606009
 20
898.7468713620197
 30
0.0
 40
6.0
 41
48.6603
 71
     5
 72
     5
  1
%%c101.6
 73
     1
 44
1.0
  0
MTEXT
  5
A5EA
330
1F
100
AcDbEntity
  8
0
 48
0.5
100
AcDbMText
 10
562.4109775606009
 20
886.7468713620196
 30
0.0
 40
6.0
 41
48.6603
 71
     5
 72
     5
  1
%%c114.3
 73
     1
 44
1.0
  0
LWPOLYLINE
  5
A5EB
330
1F
100
AcDbEntity
  8
0
 48
0.5
100
AcDbPolyline
 90
        4
 70
     1
 43
0.0
 10
544.251358593604
 20
1020.401022194643
 10
593.2308336774381
 20
1020.401022194643
 10
593.2308336774381
 20
1008.728909460978
 10
544.251358593604
 20
1008.728909460978
  0
LINE
  5
A628
330
1F
100
AcDbEntity
  8
0
 48
0.5
100
AcDbLine
 10
582.4708996936514
 20
998.9344096449482
 30
0.0
 11
593.1549434956023
 21
998.9344096449482
 31
0.0
  0
LINE
  5
A629
330
1F
100
AcDbEntity
  8
0
 48
0.5
100
AcDbLine
 10
593.1549434956023
 20
998.9344096449482
 30
0.0
 11
593.1549434956023
 21
930.8623851359826
 31
0.0
  0
LINE
  5
A62A
330
1F
100
AcDbEntity
  8
0
 48
0.5
100
AcDbLine
 10
582.4708996936514
 20
930.8623851359824
 30
0.0
 11
593.1549434956023
 21
930.8623851359826
 31
0.0
  0
LINE
  5
A62B
330
1F
100
AcDbEntity
  8
0
 48
0.5
100
AcDbLine
 10
582.4708996936514
 20
926.2664690237304
 30
0.0
 11
593.1549434956023
 21
926.2664690237304
 31
0.0
  0
LINE
  5
A62C
330
1F
100
AcDbEntity
  8
0
 48
0.5
100
AcDbLine
 10
593.1549434956023
 20
926.2664690237304
 30
0.0
 11
593.1549434956023
 21
881.3160631423334
 31
0.0
  0
LINE
  5
A62D
330
1F
100
AcDbEntity
  8
0
 48
0.5
100
AcDbLine
 10
582.4708996936514
 20
881.3160631423333
 30
0.0
 11
593.1549434956023
 21
881.3160631423334
 31
0.0
  0
MTEXT
  5
A62F
330
1F
100
AcDbEntity
  8
0
 48
0.5
100
AcDbMText
 10
613.0602434956023
 20
963.55061654244
 30
0.0
 40
6.0
 41
39.8106
 71
     5
 72
     5
  1
 板厚=1.8
 73
     1
 44
1.0
  0
MTEXT
  5
A630
330
1F
100
AcDbEntity
  8
0
 48
0.5
100
AcDbMText
 10
613.0602434956023
 20
901.9942949617963
 30
0.0
 40
6.0
 41
39.8106
 71
     5
 72
     5
  1
 板厚=2.3
 73
     1
 44
1.0
  0
LINE
  5
A63D
330
1F
100
AcDbEntity
  8
0
 62
     0
 48
0.3
100
AcDbLine
 10
199.8120328371089
 20
1036.673161620019
 30
0.0
 11
199.8120328371089
 21
1045.188243525059
 31
0.0
  0
LINE
  5
A63E
330
1F
100
AcDbEntity
  8
0
 62
     0
 48
0.3
100
AcDbLine
 10
191.8120328371089
 20
1036.673161620019
 30
0.0
 11
191.8120328371089
 21
1045.188243525059
 31
0.0
  0
LINE
  5
A648
330
1F
100
AcDbEntity
  8
0
 48
0.5
100
AcDbLine
 10
199.8120328371089
 20
997.8083133035157
 30
0.0
 11
199.8120328371089
 21
1002.808313303515
 31
0.0
  0
CIRCLE
  5
A64A
330
1F
100
AcDbEntity
  8
0
 62
     0
 48
0.3
100
AcDbCircle
 10
195.8120328371089
 20
1004.055186390499
 30
0.0
 40
1.0
  0
LINE
  5
A64B
330
1F
100
AcDbEntity
  8
0
 62
     0
 48
0.3
100
AcDbLine
 10
192.8120328371089
 20
1002.805186390499
 30
0.0
 11
198.8120328371089
 21
1002.805186390499
 31
0.0
  0
LINE
  5
A64C
330
1F
100
AcDbEntity
  8
0
 62
     0
 48
0.3
100
AcDbLine
 10
199.8120328371089
 20
1002.805186390499
 30
0.0
 11
191.8120328371089
 21
1002.805186390499
 31
0.0
  0
LINE
  5
A64D
330
1F
100
AcDbEntity
  8
0
 62
     0
 48
0.3
100
AcDbLine
 10
199.8120328371089
 20
1005.305186390499
 30
0.0
 11
191.8120328371089
 21
1005.305186390499
 31
0.0
  0
LINE
  5
A64E
330
1F
100
AcDbEntity
  8
0
 62
     0
 48
0.3
100
AcDbLine
 10
198.8120328371089
 20
1002.805186390499
 30
0.0
 11
198.8120328371089
 21
1005.305186390499
 31
0.0
  0
LINE
  5
A64F
330
1F
100
AcDbEntity
  8
0
 62
     0
 48
0.3
100
AcDbLine
 10
192.8120328371089
 20
1002.805186390499
 30
0.0
 11
192.8120328371089
 21
1005.305186390499
 31
0.0
  0
LINE
  5
A650
330
1F
100
AcDbEntity
  8
0
 62
     0
 48
0.3
100
AcDbLine
 10
195.8120328371089
 20
1002.805186390499
 30
0.0
 11
192.8120328371089
 21
1002.805186390499
 31
0.0
  0
LINE
  5
A653
330
1F
100
AcDbEntity
  8
0
 62
     0
 48
0.3
100
AcDbLine
 10
199.8120328371089
 20
1005.305186390499
 30
0.0
 11
199.8120328371089
 21
1011.188313303515
 31
0.0
  0
LINE
  5
A655
330
1F
100
AcDbEntity
  8
0
 62
     0
 48
0.3
100
AcDbLine
 10
191.8120328371089
 20
1005.305186390499
 30
0.0
 11
191.8120328371089
 21
1011.188313303515
 31
0.0
  0
LINE
  5
A657
330
1F
100
AcDbEntity
  8
0
 48
0.5
100
AcDbLine
 10
199.8120328371089
 20
1011.188313303515
 30
0.0
 11
199.8120328371089
 21
1013.688313303515
 31
0.0
  0
LINE
  5
A658
330
1F
100
AcDbEntity
  8
0
 48
0.5
100
AcDbLine
 10
191.8120328371089
 20
1013.688313303515
 30
0.0
 11
191.8120328371089
 21
1011.188313303515
 31
0.0
  0
LINE
  5
A6C6
330
1F
100
AcDbEntity
  8
0
 62
     0
 48
0.3
100
AcDbLine
 10
327.3744401295427
 20
1005.308313303515
 30
0.0
 11
327.3744401295427
 21
1011.191440216531
 31
0.0
  0
LINE
  5
A6C7
330
1F
100
AcDbEntity
  8
0
 62
     0
 48
0.3
100
AcDbLine
 10
319.3744401295428
 20
1005.308313303515
 30
0.0
 11
319.3744401295428
 21
1011.191440216531
 31
0.0
  0
LINE
  5
A6C9
330
1F
100
AcDbEntity
  8
0
 62
     0
 48
0.3
100
AcDbLine
 10
326.3744401295427
 20
1002.808313303515
 30
0.0
 11
320.3744401295427
 21
1002.808313303515
 31
0.0
  0
LINE
  5
A6CA
330
1F
100
AcDbEntity
  8
0
 62
     0
 48
0.3
100
AcDbLine
 10
319.3744401295428
 20
1002.808313303515
 30
0.0
 11
327.3744401295427
 21
1002.808313303515
 31
0.0
  0
LINE
  5
A6CB
330
1F
100
AcDbEntity
  8
0
 62
     0
 48
0.3
100
AcDbLine
 10
319.3744401295428
 20
1005.308313303515
 30
0.0
 11
327.3744401295427
 21
1005.308313303515
 31
0.0
  0
LINE
  5
A6CD
330
1F
100
AcDbEntity
  8
0
 62
     0
 48
0.5
100
AcDbLine
 10
319.3744401295428
 20
997.8083133035154
 30
0.0
 11
327.3744401295427
 21
997.8083133035154
 31
0.0
  0
LINE
  5
A6CE
330
1F
100
AcDbEntity
  8
0
 62
     0
 48
0.3
100
AcDbLine
 10
319.3744401295428
 20
997.8083133035156
 30
0.0
 11
319.3744401295428
 21
1002.808313303515
 31
0.0
  0
LINE
  5
A6CF
330
1F
100
AcDbEntity
  8
0
 62
     0
 48
0.3
100
AcDbLine
 10
320.3744401295427
 20
1002.808313303515
 30
0.0
 11
320.3744401295427
 21
1005.308313303515
 31
0.0
  0
LINE
  5
A6D0
330
1F
100
AcDbEntity
  8
0
 48
0.5
100
AcDbLine
 10
319.3744401295428
 20
997.8083133035156
 30
0.0
 11
319.3744401295428
 21
1002.438313303515
 31
0.0
  0
LINE
  5
A6D1
330
1F
100
AcDbEntity
  8
0
 62
     0
 48
0.3
100
AcDbLine
 10
327.3744401295427
 20
997.8083133035156
 30
0.0
 11
327.3744401295427
 21
1002.808313303515
 31
0.0
  0
LINE
  5
A6D2
330
1F
100
AcDbEntity
  8
0
 62
     0
 48
0.3
100
AcDbLine
 10
326.3744401295427
 20
1002.808313303515
 30
0.0
 11
326.3744401295427
 21
1005.308313303515
 31
0.0
  0
LINE
  5
A6D3
330
1F
100
AcDbEntity
  8
0
 62
     0
 48
0.3
100
AcDbLine
 10
323.3744401295428
 20
1002.808313303515
 30
0.0
 11
326.3744401295427
 21
1002.808313303515
 31
0.0
  0
LINE
  5
A6D4
330
1F
100
AcDbEntity
  8
0
 62
     0
 48
0.3
100
AcDbLine
 10
327.3744401295427
 20
1013.691440216532
 30
0.0
 11
327.3744401295427
 21
1043.426696657158
 31
0.0
  0
LINE
  5
A6D5
330
1F
100
AcDbEntity
  8
0
 62
     0
 48
0.3
100
AcDbLine
 10
319.3744401295428
 20
1013.691440216532
 30
0.0
 11
319.3744401295428
 21
1043.426696657158
 31
0.0
  0
LINE
  5
A6D6
330
1F
100
AcDbEntity
  8
0
 48
0.5
100
AcDbLine
 10
319.3744401295428
 20
1011.191440216531
 30
0.0
 11
319.3744401295428
 21
1013.691440216532
 31
0.0
  0
LINE
  5
A6D7
330
1F
100
AcDbEntity
  8
0
 48
0.5
100
AcDbLine
 10
327.3744401295427
 20
1013.691440216532
 30
0.0
 11
327.3744401295427
 21
1011.191440216531
 31
0.0
  0
LINE
  5
A6D8
330
1F
100
AcDbEntity
  8
0
 62
     0
 48
0.3
100
AcDbLine
 10
326.3744401295427
 20
1045.191370438075
 30
0.0
 11
320.3744401295427
 21
1045.191370438075
 31
0.0
  0
ARC
  5
A6D9
330
1F
100
AcDbEntity
  8
0
 62
     0
 48
0.3
100
AcDbCircle
 10
323.3744401295428
 20
1048.691370438076
 30
0.0
 40
4.0
100
AcDbArc
 50
0.0
 51
180.0
  0
LINE
  5
A6DA
330
1F
100
AcDbEntity
  8
0
 62
     0
 48
0.3
100
AcDbLine
 10
319.3744401295428
 20
1045.191370438075
 30
0.0
 11
327.3744401295427
 21
1045.191370438075
 31
0.0
  0
LINE
  5
A6DB
330
1F
100
AcDbEntity
  8
0
 62
     0
 48
0.3
100
AcDbLine
 10
319.3744401295428
 20
1047.691370438075
 30
0.0
 11
327.3744401295427
 21
1047.691370438075
 31
0.0
  0
LINE
  5
A6DD
330
1F
100
AcDbEntity
  8
0
 62
     0
 48
0.3
100
AcDbLine
 10
320.3744401295427
 20
1045.191370438075
 30
0.0
 11
320.3744401295427
 21
1047.691370438075
 31
0.0
  0
LINE
  5
A6DE
330
1F
100
AcDbEntity
  8
0
 62
     0
 48
0.3
100
AcDbLine
 10
319.3744401295428
 20
1047.691370438075
 30
0.0
 11
319.3744401295428
 21
1048.721615969022
 31
0.0
  0
LINE
  5
A6DF
330
1F
100
AcDbEntity
  8
0
 62
     0
 48
0.3
100
AcDbLine
 10
319.3744401295428
 20
1036.676288533035
 30
0.0
 11
319.3744401295428
 21
1045.191370438075
 31
0.0
  0
LINE
  5
A6E0
330
1F
100
AcDbEntity
  8
0
 62
     0
 48
0.3
100
AcDbLine
 10
326.3744401295427
 20
1045.191370438075
 30
0.0
 11
326.3744401295427
 21
1047.691370438075
 31
0.0
  0
LINE
  5
A6E1
330
1F
100
AcDbEntity
  8
0
 62
     0
 48
0.3
100
AcDbLine
 10
323.3744401295428
 20
1045.191370438075
 30
0.0
 11
326.3744401295427
 21
1045.191370438075
 31
0.0
  0
LINE
  5
A6E2
330
1F
100
AcDbEntity
  8
0
 62
     0
 48
0.3
100
AcDbLine
 10
327.3744401295427
 20
1047.691370438075
 30
0.0
 11
327.3744401295427
 21
1048.691370438076
 31
0.0
  0
LINE
  5
A6E3
330
1F
100
AcDbEntity
  8
0
 62
     0
 48
0.3
100
AcDbLine
 10
327.3744401295427
 20
1047.691370438075
 30
0.0
 11
327.3744401295427
 21
1048.691370438076
 31
0.0
  0
LINE
  5
A6E4
330
1F
100
AcDbEntity
  8
0
 62
     0
 48
0.3
100
AcDbLine
 10
327.3744401295427
 20
1036.676288533035
 30
0.0
 11
327.3744401295427
 21
1045.191370438075
 31
0.0
  0
DIMENSION
  5
A6E5
330
1F
100
AcDbEntity
  8
0
 48
0.5
100
AcDbDimension
  2
*D3
 10
370.1540362693808
 20
1289.460423284187
 30
0.0
 11
364.1540362693806
 21
1240.500587275463
 31
0.0
 70
    33
  1
100
 71
     5
 42
97.91967201744796
  3
ISO-25
100
AcDbAlignedDimension
 13
370.1540362693808
 23
1191.540751266739
 33
0.0
 14
370.1540362693808
 24
1289.460423284187
 34
0.0
  0
DIMENSION
  5
A6F3
330
1F
100
AcDbEntity
  8
0
 48
0.5
100
AcDbDimension
  2
*D4
 10
352.3802119991178
 20
1245.981771115612
 30
0.0
 11
346.3802119991175
 21
1218.761261191176
 31
0.0
 70
    33
  1
58
 71
     5
 42
54.44101984887357
  3
ISO-25
100
AcDbAlignedDimension
 13
339.2229684882545
 23
1191.540751266739
 33
0.0
 14
339.2229684882545
 24
1245.981771115612
 34
0.0
  0
LINE
  5
A725
330
1F
100
AcDbEntity
  8
0
 62
     0
 48
0.5
100
AcDbLine
 10
205.3120328371089
 20
993.8824532994258
 30
0.0
 11
207.1120328371089
 21
993.8824532994258
 31
0.0
  0
LINE
  5
A726
330
1F
100
AcDbEntity
  8
0
 62
     0
 48
0.5
100
AcDbLine
 10
199.3068101631798
 20
949.814236941828
 30
0.0
 11
199.2157118607977
 21
949.6257257727695
 31
0.0
  0
ARC
  5
A727
330
1F
100
AcDbEntity
  8
0
 62
     0
 48
0.5
100
AcDbCircle
 10
194.7138227377327
 20
951.8012703766856
 30
0.0
 40
5.0
100
AcDbArc
 50
280.8514391571575
 51
334.2077751215898
  0
ARC
  5
A728
330
1F
100
AcDbEntity
  8
0
 62
     0
 48
0.5
100
AcDbCircle
 10
192.3855523832328
 20
953.7623377303606
 30
0.0
 40
6.117741794840355
100
AcDbArc
 50
321.3634594227388
 51
0.5305306584816945
  0
ARC
  5
A729
330
1F
100
AcDbEntity
  8
0
 62
     0
 48
0.5
100
AcDbCircle
 10
190.3030319170496
 20
954.16532614966
 30
0.0
 40
10.0
100
AcDbArc
 50
334.2077751215924
 51
0.000000000000007
  0
ARC
  5
A72B
330
1F
100
AcDbEntity
  8
0
 62
     0
 48
0.5
100
AcDbCircle
 10
193.5543069587657
 20
953.4020716776106
 30
0.0
 40
5.0
100
AcDbArc
 50
282.1553579594453
 51
316.2190366986657
  0
LINE
  5
A72C
330
1F
100
AcDbEntity
  8
0
 48
0.5
100
AcDbLine
 10
198.5032941780732
 20
953.7623377303606
 30
0.0
 11
198.5120328371088
 21
954.583299217935
 31
0.0
  0
LINE
  5
A72D
330
1F
100
AcDbEntity
  8
0
 48
0.5
100
AcDbLine
 10
200.3120328371089
 20
956.8191008953624
 30
0.0
 11
200.3030319170496
 21
954.16532614966
 31
0.0
  0
LINE
  5
A72E
330
1F
100
AcDbEntity
  8
0
 48
0.5
100
AcDbLine
 10
195.1332817080414
 20
946.7527801924452
 30
0.0
 11
195.655138334778
 21
946.8906772407438
 31
0.0
  0
ARC
  5
A72F
330
1F
100
AcDbEntity
  8
0
 62
     0
 48
0.5
100
AcDbCircle
 10
204.3120328371089
 20
918.1914334505522
 30
0.0
 40
31.8
100
AcDbArc
 50
107.1570594603791
 51
260.2567987302843
  0
ARC
  5
A730
330
1F
100
AcDbEntity
  8
0
 62
     0
 48
0.5
100
AcDbCircle
 10
204.3120328371089
 20
918.1914334505522
 30
0.0
 40
33.6
100
AcDbArc
 50
106.2475724993126
 51
241.4176017595935
  0
LINE
  5
A731
330
1F
100
AcDbEntity
  8
0
 62
     0
 48
0.5
100
AcDbLine
 10
200.3120328371089
 20
993.8824532994258
 30
0.0
 11
200.3120328371089
 21
956.8191008953624
 31
0.0
  0
LINE
  5
A74C
330
1F
100
AcDbEntity
  8
0
 48
0.5
100
AcDbLine
 10
198.5033006607013
 20
984.1302387578611
 30
0.0
 11
198.5207789121686
 21
978.6302943019263
 31
0.0
  0
LINE
  5
A74E
330
1F
100
AcDbEntity
  8
0
 48
0.5
100
AcDbLine
 10
200.3120328371089
 20
981.3824532994072
 30
0.0
 11
200.3120328371089
 21
991.3824532994071
 31
0.0
  0
LINE
  5
A763
330
1F
100
AcDbEntity
  8
0
 48
0.5
100
AcDbLine
 10
198.5120328371088
 20
964.1287030158464
 30
0.0
 11
198.5120328371088
 21
958.6302665078093
 31
0.0
  0
LINE
  5
A766
330
1F
100
AcDbEntity
  8
0
 48
0.5
100
AcDbLine
 10
188.3120328371089
 20
995.8051863904998
 30
0.0
 11
188.3120328371089
 21
997.8083133035157
 31
0.0
  0
DIMENSION
  5
A76A
330
1F
100
AcDbEntity
  8
0
 48
0.5
100
AcDbDimension
  2
*D5
 10
176.5551613278043
 20
995.8051863904998
 30
0.0
 11
170.5551613278042
 21
980.8051863904999
 31
0.0
 70
    33
 71
     5
 42
2.003126913015876
  3
ISO-25
100
AcDbAlignedDimension
 13
188.3120328371089
 23
997.8083133035157
 33
0.0
 14
188.3120328371089
 24
995.8051863904998
 34
0.0
  0
ARC
  5
A77B
330
1F
100
AcDbEntity
  8
0
 62
     0
 48
0.5
100
AcDbCircle
 10
203.8120328371089
 20
996.3083133035157
 30
0.0
 40
1.5
100
AcDbArc
 50
0.0
 51
90.0
  0
ARC
  5
A77C
330
1F
100
AcDbEntity
  8
0
 62
     0
 48
0.5
100
AcDbCircle
 10
202.8120328371089
 20
995.3051863904997
 30
0.0
 40
0.5
100
AcDbArc
 50
359.9999999999999
 51
90.0
  0
LINE
  5
A77E
330
1F
100
AcDbEntity
  8
0
 62
     0
 48
0.5
100
AcDbLine
 10
202.8120328371089
 20
995.8051863904998
 30
0.0
 11
188.3120328371089
 21
995.8051863904998
 31
0.0
  0
MTEXT
  5
A782
330
1F
100
AcDbEntity
  8
0
 48
0.5
100
AcDbMText
 10
215.9329582618029
 20
999.6368346101021
 30
0.0
 40
6.0
 41
20.438
 71
     1
 72
     1
  1

 73
     1
 44
1.0
  0
MTEXT
  5
A784
102
{ACAD_REACTORS
330
A783
102
}
330
1F
100
AcDbEntity
  8
0
 48
0.5
100
AcDbMText
 10
220.2332910896789
 20
999.5560380327061
 30
0.0
 40
6.0
 41
20.438
 71
     1
 72
     1
  1

 73
     1
 44
1.0
  0
MTEXT
  5
A786
102
{ACAD_REACTORS
330
A785
102
}
330
1F
100
AcDbEntity
  8
0
 48
0.5
100
AcDbMText
 10
220.2332910896789
 20
999.5560380327061
 30
0.0
 40
6.0
 41
3.0
 71
     1
 72
     1
  1

 73
     1
 44
1.0
  0
DIMENSION
  5
A789
330
1F
100
AcDbEntity
  8
0
 48
0.5
100
AcDbDimension
  2
*D6
 10
335.8744401295428
 20
922.276004029981
 30
0.0
 11
349.921132363198
 21
922.276004029981
 31
0.0
 70
   161
 71
     5
 42
25.0
  3
ISO-25
100
AcDbAlignedDimension
 13
310.8744401295428
 23
932.7923800528225
 33
0.0
 14
335.8744401295428
 24
932.7923800528225
 34
0.0
  0
ARC
  5
A7C1
330
1F
100
AcDbEntity
  8
0
 48
0.5
100
AcDbCircle
 10
323.3744401295428
 20
935.3328842997614
 30
0.0
 40
58.5564722636689
100
AcDbArc
 50
77.6742691757416
 51
102.3257308242583
  0
LINE
  5
A7C5
330
1F
100
AcDbEntity
  8
0
 62
     0
 48
0.3
100
AcDbLine
 10
300.9494480032977
 20
1287.110423284186
 30
0.0
 11
300.9494480032977
 21
1289.610423284186
 31
0.0
  0
LINE
  5
A7C6
330
1F
100
AcDbEntity
  8
0
 62
     0
 48
0.3
100
AcDbLine
 10
306.9494480032976
 20
1287.110423284186
 30
0.0
 11
306.9494480032976
 21
1289.610423284186
 31
0.0
  0
ARC
  5
A7C7
330
1F
100
AcDbEntity
  8
0
 48
0.5
100
AcDbCircle
 10
303.9494480032976
 20
1177.251937145872
 30
0.0
 40
58.5564722636689
100
AcDbArc
 50
77.6742691757416
 51
102.3257308242583
  0
LINE
  5
A7C9
330
1F
100
AcDbEntity
  8
0
 62
     0
 48
0.5
100
AcDbLine
 10
291.6371187899493
 20
1192.264175107458
 30
0.0
 11
300.1371187899493
 21
1192.264175107458
 31
0.0
  0
LINE
  5
A7CC
330
1F
100
AcDbEntity
  8
0
 62
     0
 48
0.5
100
AcDbLine
 10
308.1794287834768
 20
1192.264175107458
 30
0.0
 11
316.4494480032976
 21
1192.264175107458
 31
0.0
  0
LINE
  5
A7CD
330
1F
100
AcDbEntity
  8
0
 62
     0
100
AcDbLine
 10
309.7374277069926
 20
1199.835312827862
 30
0.0
 11
309.7395011278309
 21
1206.3055838197
 31
0.0
  0
LINE
  5
A7CE
330
1F
100
AcDbEntity
  8
0
 62
     0
100
AcDbLine
 10
298.536809872906
 20
1206.301992549462
 30
0.0
 11
298.5347364520677
 21
1199.831721557624
 31
0.0
  0
CIRCLE
  5
A7CF
330
1F
100
AcDbEntity
  8
0
 62
     0
100
AcDbCircle
 10
304.1371187899493
 20
1203.068652688662
 30
0.0
 40
5.601345915277712
  0
ARC
  5
A7D0
330
1F
100
AcDbEntity
  8
0
 62
     0
 48
0.5
100
AcDbCircle
 10
304.158273786713
 20
1187.252145105451
 30
0.0
 40
6.42573982114267
100
AcDbArc
 50
51.25990488031764
 51
128.7400951196823
  0
LINE
  5
A7D1
330
1F
100
AcDbEntity
  8
0
 62
     0
100
AcDbLine
 10
298.5347364520677
 20
1199.831721557624
 30
0.0
 11
304.135045369111
 21
1196.598381696824
 31
0.0
  0
LINE
  5
A7D2
330
1F
100
AcDbEntity
  8
0
 62
     0
100
AcDbLine
 10
298.5347364520677
 20
1199.831721557624
 30
0.0
 11
304.135045369111
 21
1196.598381696824
 31
0.0
  0
LINE
  5
A7D3
330
1F
100
AcDbEntity
  8
0
 62
     0
100
AcDbLine
 10
304.135045369111
 20
1196.598381696824
 30
0.0
 11
309.7374277069926
 21
1199.835312827862
 31
0.0
  0
LINE
  5
A7D4
330
1F
100
AcDbEntity
  8
0
 62
     0
100
AcDbLine
 10
304.1391922107877
 20
1229.538923680499
 30
0.0
 11
298.536809872906
 21
1226.301992549462
 31
0.0
  0
LINE
  5
A7D5
330
1F
100
AcDbEntity
  8
0
 62
     0
100
AcDbLine
 10
304.1391922107877
 20
1209.5389236805
 30
0.0
 11
298.536809872906
 21
1206.301992549462
 31
0.0
  0
LINE
  5
A7D6
330
1F
100
AcDbEntity
  8
0
 62
     0
100
AcDbLine
 10
298.5347364520677
 20
1219.831721557625
 30
0.0
 11
304.135045369111
 21
1216.598381696824
 31
0.0
  0
LINE
  5
A7D7
330
1F
100
AcDbEntity
  8
0
 62
     0
100
AcDbLine
 10
298.5347364520677
 20
1219.831721557625
 30
0.0
 11
304.135045369111
 21
1216.598381696824
 31
0.0
  0
CIRCLE
  5
A7D8
330
1F
100
AcDbEntity
  8
0
 62
     0
100
AcDbCircle
 10
304.1371187899493
 20
1223.068652688662
 30
0.0
 40
5.601345915277712
  0
LINE
  5
A7D9
330
1F
100
AcDbEntity
  8
0
 62
     0
100
AcDbLine
 10
298.536809872906
 20
1226.301992549462
 30
0.0
 11
298.5347364520677
 21
1219.831721557625
 31
0.0
  0
LINE
  5
A7DA
330
1F
100
AcDbEntity
  8
0
 62
     0
100
AcDbLine
 10
309.7395011278309
 20
1226.3055838197
 30
0.0
 11
304.1391922107877
 21
1229.538923680499
 31
0.0
  0
LINE
  5
A7DB
330
1F
100
AcDbEntity
  8
0
 62
     0
100
AcDbLine
 10
309.7395011278309
 20
1226.3055838197
 30
0.0
 11
304.1391922107877
 21
1229.538923680499
 31
0.0
  0
LINE
  5
A7DC
330
1F
100
AcDbEntity
  8
0
 62
     0
100
AcDbLine
 10
309.7395011278309
 20
1206.3055838197
 30
0.0
 11
304.1391922107877
 21
1209.5389236805
 31
0.0
  0
LINE
  5
A7DD
330
1F
100
AcDbEntity
  8
0
 62
     0
100
AcDbLine
 10
309.7395011278309
 20
1206.3055838197
 30
0.0
 11
304.1391922107877
 21
1209.5389236805
 31
0.0
  0
LINE
  5
A7DE
330
1F
100
AcDbEntity
  8
0
 62
     0
100
AcDbLine
 10
309.7374277069926
 20
1219.835312827862
 30
0.0
 11
309.7395011278309
 21
1226.3055838197
 31
0.0
  0
LINE
  5
A7DF
330
1F
100
AcDbEntity
  8
0
 62
     0
100
AcDbLine
 10
304.135045369111
 20
1216.598381696824
 30
0.0
 11
309.7374277069926
 21
1219.835312827862
 31
0.0
  0
LINE
  5
A7E0
330
1F
100
AcDbEntity
  8
0
 62
     0
 48
0.3
100
AcDbLine
 10
299.9494480032976
 20
1255.610493062642
 30
0.0
 11
299.9494480032976
 21
1285.345749503269
 31
0.0
  0
LINE
  5
A7E1
330
1F
100
AcDbEntity
  8
0
 62
     0
 48
0.3
100
AcDbLine
 10
307.9494480032976
 20
1255.610493062642
 30
0.0
 11
307.9494480032976
 21
1285.345749503269
 31
0.0
  0
LINE
  5
A7E2
330
1F
100
AcDbEntity
  8
0
 62
     0
 48
0.3
100
AcDbLine
 10
299.9494480032976
 20
1247.227366149626
 30
0.0
 11
307.9494480032976
 21
1247.227366149626
 31
0.0
  0
LINE
  5
A7E3
330
1F
100
AcDbEntity
  8
0
 62
     0
 48
0.3
100
AcDbLine
 10
299.9494480032976
 20
1244.727366149626
 30
0.0
 11
307.9494480032976
 21
1244.727366149626
 31
0.0
  0
LINE
  5
A7E4
330
1F
100
AcDbEntity
  8
0
 62
     0
 48
0.3
100
AcDbLine
 10
306.9494480032976
 20
1244.727366149626
 30
0.0
 11
300.9494480032977
 21
1244.727366149626
 31
0.0
  0
LINE
  5
A7E5
330
1F
100
AcDbEntity
  8
0
 62
     0
 48
0.5
100
AcDbLine
 10
299.9494480032976
 20
1239.727366149626
 30
0.0
 11
307.9494480032976
 21
1239.727366149626
 31
0.0
  0
LINE
  5
A7E6
330
1F
100
AcDbEntity
  8
0
 62
     0
 48
0.3
100
AcDbLine
 10
299.9494480032976
 20
1239.727366149626
 30
0.0
 11
299.9494480032976
 21
1244.727366149626
 31
0.0
  0
LINE
  5
A7E7
330
1F
100
AcDbEntity
  8
0
 48
0.5
100
AcDbLine
 10
299.9494480032976
 20
1253.110493062642
 30
0.0
 11
299.9494480032976
 21
1255.610493062642
 31
0.0
  0
LINE
  5
A7E8
330
1F
100
AcDbEntity
  8
0
 62
     0
 48
0.3
100
AcDbLine
 10
299.9494480032976
 20
1247.227366149626
 30
0.0
 11
299.9494480032976
 21
1253.110493062642
 31
0.0
  0
LINE
  5
A7E9
330
1F
100
AcDbEntity
  8
0
 62
     0
 48
0.3
100
AcDbLine
 10
300.9494480032977
 20
1244.727366149626
 30
0.0
 11
300.9494480032977
 21
1247.227366149626
 31
0.0
  0
LINE
  5
A7EA
330
1F
100
AcDbEntity
  8
0
 48
0.5
100
AcDbLine
 10
299.9494480032976
 20
1239.727366149626
 30
0.0
 11
299.9494480032976
 21
1244.357366149626
 31
0.0
  0
LINE
  5
A7EB
330
1F
100
AcDbEntity
  8
0
 62
     0
 48
0.3
100
AcDbLine
 10
307.9494480032976
 20
1239.727366149626
 30
0.0
 11
307.9494480032976
 21
1244.727366149626
 31
0.0
  0
LINE
  5
A7EC
330
1F
100
AcDbEntity
  8
0
 48
0.5
100
AcDbLine
 10
307.9494480032976
 20
1255.610493062642
 30
0.0
 11
307.9494480032976
 21
1253.110493062642
 31
0.0
  0
LINE
  5
A7ED
330
1F
100
AcDbEntity
  8
0
 62
     0
 48
0.3
100
AcDbLine
 10
307.9494480032976
 20
1247.227366149626
 30
0.0
 11
307.9494480032976
 21
1253.110493062642
 31
0.0
  0
LINE
  5
A7EE
330
1F
100
AcDbEntity
  8
0
 62
     0
 48
0.3
100
AcDbLine
 10
303.9494480032976
 20
1244.727366149626
 30
0.0
 11
306.9494480032976
 21
1244.727366149626
 31
0.0
  0
LINE
  5
A7EF
330
1F
100
AcDbEntity
  8
0
 62
     0
 48
0.3
100
AcDbLine
 10
306.9494480032976
 20
1244.727366149626
 30
0.0
 11
306.9494480032976
 21
1247.227366149626
 31
0.0
  0
LINE
  5
A7F0
330
1F
100
AcDbEntity
  8
0
 62
     0
 48
0.3
100
AcDbLine
 10
299.9494480032976
 20
1287.110423284186
 30
0.0
 11
307.9494480032976
 21
1287.110423284186
 31
0.0
  0
LINE
  5
A7F1
330
1F
100
AcDbEntity
  8
0
 62
     0
 48
0.3
100
AcDbLine
 10
306.9494480032976
 20
1287.110423284186
 30
0.0
 11
300.9494480032977
 21
1287.110423284186
 31
0.0
  0
LINE
  5
A7F2
330
1F
100
AcDbEntity
  8
0
 62
     0
 48
0.3
100
AcDbLine
 10
299.9494480032976
 20
1278.595341379146
 30
0.0
 11
299.9494480032976
 21
1287.110423284186
 31
0.0
  0
LINE
  5
A7F3
330
1F
100
AcDbEntity
  8
0
 62
     0
 48
0.3
100
AcDbLine
 10
307.9494480032976
 20
1278.595341379146
 30
0.0
 11
307.9494480032976
 21
1287.110423284186
 31
0.0
  0
LINE
  5
A7F4
330
1F
100
AcDbEntity
  8
0
 62
     0
 48
0.3
100
AcDbLine
 10
303.9494480032976
 20
1287.110423284186
 30
0.0
 11
306.9494480032976
 21
1287.110423284186
 31
0.0
  0
ARC
  5
A7F7
330
1F
100
AcDbEntity
  8
0
 62
     0
 48
0.3
100
AcDbCircle
 10
303.9494480032976
 20
1290.610423284186
 30
0.0
 40
4.0
100
AcDbArc
 50
0.0
 51
180.0
  0
LINE
  5
A7F8
330
1F
100
AcDbEntity
  8
0
 62
     0
 48
0.3
100
AcDbLine
 10
299.9494480032976
 20
1289.610423284186
 30
0.0
 11
307.9494480032976
 21
1289.610423284186
 31
0.0
  0
LINE
  5
A7F9
330
1F
100
AcDbEntity
  8
0
 62
     0
 48
0.3
100
AcDbLine
 10
299.9494480032976
 20
1289.610423284186
 30
0.0
 11
299.9494480032976
 21
1290.640668815133
 31
0.0
  0
LINE
  5
A7FA
330
1F
100
AcDbEntity
  8
0
 62
     0
 48
0.3
100
AcDbLine
 10
307.9494480032976
 20
1289.610423284186
 30
0.0
 11
307.9494480032976
 21
1290.610423284186
 31
0.0
  0
LINE
  5
A7FB
330
1F
100
AcDbEntity
  8
0
 62
     0
 48
0.3
100
AcDbLine
 10
307.9494480032976
 20
1289.610423284186
 30
0.0
 11
307.9494480032976
 21
1290.610423284186
 31
0.0
  0
LINE
  5
A7FC
330
1F
100
AcDbEntity
  8
0
 48
0.5
100
AcDbLine
 10
316.5746427417723
 20
1288.298363190027
 30
0.0
 11
306.9494480032976
 21
1288.298363190027
 31
0.0
  0
LINE
  5
A7FE
330
1F
100
AcDbEntity
  8
0
 48
0.5
100
AcDbLine
 10
300.1476541913382
 20
1289.460423284187
 30
0.0
 11
300.9494480032977
 21
1289.460423284187
 31
0.0
  0
LINE
  5
A800
330
1F
100
AcDbEntity
  8
0
 48
0.5
100
AcDbLine
 10
308.3122039530741
 20
1289.460423284187
 30
0.0
 11
306.9494480032976
 21
1289.460423284187
 31
0.0
  0
LINE
  5
A801
330
1F
100
AcDbEntity
  8
0
 48
0.5
100
AcDbLine
 10
316.762313528424
 20
1288.298363190027
 30
0.0
 11
306.9494480032976
 21
1288.298363190027
 31
0.0
  0
LINE
  5
A803
330
1F
100
AcDbEntity
  8
0
 62
     0
 48
0.5
100
AcDbLine
 10
299.9494480032976
 20
1192.264175107458
 30
0.0
 11
299.9494480032976
 21
1131.555574191288
 31
0.0
  0
LINE
  5
A804
330
1F
100
AcDbEntity
  8
0
 62
     0
 48
0.5
100
AcDbLine
 10
549.7821440834751
 20
1192.264175107458
 30
0.0
 11
549.7821440834751
 21
1131.555574191288
 31
0.0
  0
LINE
  5
A805
330
1F
100
AcDbEntity
  8
0
 62
     0
 48
0.5
100
AcDbLine
 10
541.7398340899476
 20
1192.264175107458
 30
0.0
 11
541.7398340899476
 21
1131.555574191288
 31
0.0
  0
LINE
  5
A806
330
1F
100
AcDbEntity
  8
0
 62
     0
 48
0.5
100
AcDbLine
 10
558.2398340899476
 20
1120.583155289057
 30
0.0
 11
558.2398340899476
 21
1234.458671399505
 31
0.0
  0
LINE
  5
A808
330
1F
100
AcDbEntity
  8
0
 62
     0
 48
0.5
100
AcDbLine
 10
553.2398340899476
 20
1120.583155289057
 30
0.0
 11
558.2398340899476
 21
1120.583155289057
 31
0.0
  0
LINE
  5
A809
330
1F
100
AcDbEntity
  8
0
 62
     0
 48
0.5
100
AcDbLine
 10
533.2398340899476
 20
1127.858431063778
 30
0.0
 11
558.2398340899476
 21
1127.858431063778
 31
0.0
  0
LINE
  5
A80A
330
1F
100
AcDbEntity
  8
0
 62
     0
 48
0.5
100
AcDbLine
 10
533.2398340899476
 20
1120.583155289057
 30
0.0
 11
553.2398340899476
 21
1120.583155289057
 31
0.0
  0
ARC
  5
A80B
330
1F
100
AcDbEntity
  8
0
 62
     0
 48
0.5
100
AcDbCircle
 10
535.3980391035215
 20
1124.220793176418
 30
0.0
 40
3.637637887360824
100
AcDbArc
 50
126.3914291071476
 51
233.6085708928523
  0
LINE
  5
A80C
330
1F
100
AcDbEntity
  8
0
 62
     0
 48
0.5
100
AcDbLine
 10
533.2398340899476
 20
1125.583155289057
 30
0.0
 11
533.2398340899476
 21
1126.583155289057
 31
0.0
  0
LINE
  5
A80D
330
1F
100
AcDbEntity
  8
0
 62
     0
 48
0.5
100
AcDbLine
 10
533.2398340899476
 20
1120.583155289057
 30
0.0
 11
533.2398340899476
 21
1125.583155289057
 31
0.0
  0
ARC
  5
A80E
330
1F
100
AcDbEntity
  8
0
 62
     0
 48
0.5
100
AcDbCircle
 10
545.7609890867113
 20
1136.567604193295
 30
0.0
 40
6.42573982114267
100
AcDbArc
 50
231.2599048803176
 51
308.7400951196823
  0
LINE
  5
A80F
330
1F
100
AcDbEntity
  8
0
 62
     0
 48
0.5
100
AcDbLine
 10
541.7398340899476
 20
1127.858431063778
 30
0.0
 11
541.7398340899476
 21
1120.583155289057
 31
0.0
  0
LINE
  5
A810
330
1F
100
AcDbEntity
  8
0
 62
     0
 48
0.5
100
AcDbLine
 10
549.7821440834751
 20
1127.858431063778
 30
0.0
 11
549.7821440834751
 21
1120.583155289057
 31
0.0
  0
ARC
  5
A811
330
1F
100
AcDbEntity
  8
0
 62
     0
 48
0.5
100
AcDbCircle
 10
558.2398340899476
 20
1124.220793176418
 30
0.0
 40
3.637637887360824
100
AcDbArc
 50
270.0
 51
90.0
  0
LINE
  5
A812
330
1F
100
AcDbEntity
  8
0
 62
     0
 48
0.3
100
AcDbLine
 10
541.7398340899476
 20
1255.610493062642
 30
0.0
 11
541.7398340899476
 21
1285.345749503269
 31
0.0
  0
LINE
  5
A813
330
1F
100
AcDbEntity
  8
0
 62
     0
 48
0.3
100
AcDbLine
 10
549.7398340899476
 20
1255.610493062642
 30
0.0
 11
549.7398340899476
 21
1285.345749503269
 31
0.0
  0
LINE
  5
A814
330
1F
100
AcDbEntity
  8
0
 62
     0
 48
0.5
100
AcDbLine
 10
549.9698148701268
 20
1192.264175107458
 30
0.0
 11
558.2398340899476
 21
1192.264175107458
 31
0.0
  0
ARC
  5
A815
330
1F
100
AcDbEntity
  8
0
 48
0.5
100
AcDbCircle
 10
545.7398340899476
 20
1177.251937145872
 30
0.0
 40
58.5564722636689
100
AcDbArc
 50
77.6742691757416
 51
102.3257308242583
  0
LINE
  5
A817
330
1F
100
AcDbEntity
  8
0
 62
     0
 48
0.5
100
AcDbLine
 10
533.4275048765992
 20
1192.264175107458
 30
0.0
 11
541.9275048765992
 21
1192.264175107458
 31
0.0
  0
LINE
  5
A818
330
1F
100
AcDbEntity
  8
0
 62
     0
100
AcDbLine
 10
551.5298872144809
 20
1206.3055838197
 30
0.0
 11
545.9295782974377
 21
1209.5389236805
 31
0.0
  0
LINE
  5
A819
330
1F
100
AcDbEntity
  8
0
 62
     0
100
AcDbLine
 10
551.5298872144809
 20
1206.3055838197
 30
0.0
 11
545.9295782974377
 21
1209.5389236805
 31
0.0
  0
LINE
  5
A81A
330
1F
100
AcDbEntity
  8
0
 62
     0
100
AcDbLine
 10
545.9254314557609
 20
1196.598381696824
 30
0.0
 11
551.5278137936426
 21
1199.835312827862
 31
0.0
  0
ARC
  5
A81B
330
1F
100
AcDbEntity
  8
0
 62
     0
 48
0.5
100
AcDbCircle
 10
545.9486598733629
 20
1187.252145105451
 30
0.0
 40
6.42573982114267
100
AcDbArc
 50
51.25990488031764
 51
128.7400951196823
  0
CIRCLE
  5
A81C
330
1F
100
AcDbEntity
  8
0
 62
     0
100
AcDbCircle
 10
545.9275048765992
 20
1203.068652688662
 30
0.0
 40
5.601345915277712
  0
LINE
  5
A81D
330
1F
100
AcDbEntity
  8
0
 62
     0
100
AcDbLine
 10
545.9295782974377
 20
1209.5389236805
 30
0.0
 11
540.3271959595559
 21
1206.301992549462
 31
0.0
  0
LINE
  5
A81E
330
1F
100
AcDbEntity
  8
0
 62
     0
100
AcDbLine
 10
540.3251225387176
 20
1199.831721557624
 30
0.0
 11
545.9254314557609
 21
1196.598381696824
 31
0.0
  0
LINE
  5
A81F
330
1F
100
AcDbEntity
  8
0
 62
     0
100
AcDbLine
 10
540.3251225387176
 20
1199.831721557624
 30
0.0
 11
545.9254314557609
 21
1196.598381696824
 31
0.0
  0
LINE
  5
A820
330
1F
100
AcDbEntity
  8
0
 62
     0
100
AcDbLine
 10
540.3271959595559
 20
1206.301992549462
 30
0.0
 11
540.3251225387176
 21
1199.831721557624
 31
0.0
  0
LINE
  5
A821
330
1F
100
AcDbEntity
  8
0
 62
     0
100
AcDbLine
 10
551.5278137936426
 20
1199.835312827862
 30
0.0
 11
551.5298872144809
 21
1206.3055838197
 31
0.0
  0
LINE
  5
A824
330
1F
100
AcDbEntity
  8
0
 62
     0
 48
0.3
100
AcDbLine
 10
541.7398340899476
 20
1239.727366149626
 30
0.0
 11
541.7398340899476
 21
1244.727366149626
 31
0.0
  0
LINE
  5
A825
330
1F
100
AcDbEntity
  8
0
 48
0.5
100
AcDbLine
 10
541.7398340899476
 20
1239.727366149626
 30
0.0
 11
541.7398340899476
 21
1244.357366149626
 31
0.0
  0
LINE
  5
A826
330
1F
100
AcDbEntity
  8
0
 62
     0
 48
0.3
100
AcDbLine
 10
549.7398340899476
 20
1239.727366149626
 30
0.0
 11
549.7398340899476
 21
1244.727366149626
 31
0.0
  0
LINE
  5
A827
330
1F
100
AcDbEntity
  8
0
 62
     0
 48
0.5
100
AcDbLine
 10
541.7398340899476
 20
1239.727366149626
 30
0.0
 11
549.7398340899476
 21
1239.727366149626
 31
0.0
  0
LINE
  5
A828
330
1F
100
AcDbEntity
  8
0
 62
     0
100
AcDbLine
 10
545.9254314557609
 20
1216.598381696824
 30
0.0
 11
551.5278137936426
 21
1219.835312827862
 31
0.0
  0
LINE
  5
A829
330
1F
100
AcDbEntity
  8
0
 62
     0
100
AcDbLine
 10
551.5298872144809
 20
1226.3055838197
 30
0.0
 11
545.9295782974377
 21
1229.538923680499
 31
0.0
  0
LINE
  5
A82A
330
1F
100
AcDbEntity
  8
0
 62
     0
100
AcDbLine
 10
551.5298872144809
 20
1226.3055838197
 30
0.0
 11
545.9295782974377
 21
1229.538923680499
 31
0.0
  0
CIRCLE
  5
A82B
330
1F
100
AcDbEntity
  8
0
 62
     0
100
AcDbCircle
 10
545.9275048765992
 20
1223.068652688662
 30
0.0
 40
5.601345915277712
  0
LINE
  5
A82C
330
1F
100
AcDbEntity
  8
0
 62
     0
100
AcDbLine
 10
540.3271959595559
 20
1226.301992549462
 30
0.0
 11
540.3251225387176
 21
1219.831721557625
 31
0.0
  0
LINE
  5
A82D
330
1F
100
AcDbEntity
  8
0
 62
     0
100
AcDbLine
 10
540.3251225387176
 20
1219.831721557625
 30
0.0
 11
545.9254314557609
 21
1216.598381696824
 31
0.0
  0
LINE
  5
A82E
330
1F
100
AcDbEntity
  8
0
 62
     0
100
AcDbLine
 10
540.3251225387176
 20
1219.831721557625
 30
0.0
 11
545.9254314557609
 21
1216.598381696824
 31
0.0
  0
LINE
  5
A82F
330
1F
100
AcDbEntity
  8
0
 62
     0
100
AcDbLine
 10
545.9295782974377
 20
1229.538923680499
 30
0.0
 11
540.3271959595559
 21
1226.301992549462
 31
0.0
  0
LINE
  5
A830
330
1F
100
AcDbEntity
  8
0
 62
     0
100
AcDbLine
 10
551.5278137936426
 20
1219.835312827862
 30
0.0
 11
551.5298872144809
 21
1226.3055838197
 31
0.0
  0
LINE
  5
A831
330
1F
100
AcDbEntity
  8
0
 62
     0
 48
0.3
100
AcDbLine
 10
541.7398340899476
 20
1247.227366149626
 30
0.0
 11
549.7398340899476
 21
1247.227366149626
 31
0.0
  0
LINE
  5
A832
330
1F
100
AcDbEntity
  8
0
 62
     0
 48
0.3
100
AcDbLine
 10
541.7398340899476
 20
1244.727366149626
 30
0.0
 11
549.7398340899476
 21
1244.727366149626
 31
0.0
  0
LINE
  5
A833
330
1F
100
AcDbEntity
  8
0
 62
     0
 48
0.3
100
AcDbLine
 10
548.7398340899476
 20
1244.727366149626
 30
0.0
 11
542.7398340899476
 21
1244.727366149626
 31
0.0
  0
LINE
  5
A834
330
1F
100
AcDbEntity
  8
0
 62
     0
 48
0.3
100
AcDbLine
 10
545.7398340899476
 20
1244.727366149626
 30
0.0
 11
548.7398340899476
 21
1244.727366149626
 31
0.0
  0
LINE
  5
A835
330
1F
100
AcDbEntity
  8
0
 48
0.5
100
AcDbLine
 10
541.7398340899476
 20
1253.110493062642
 30
0.0
 11
541.7398340899476
 21
1255.610493062642
 31
0.0
  0
LINE
  5
A836
330
1F
100
AcDbEntity
  8
0
 62
     0
 48
0.3
100
AcDbLine
 10
541.7398340899476
 20
1247.227366149626
 30
0.0
 11
541.7398340899476
 21
1253.110493062642
 31
0.0
  0
LINE
  5
A837
330
1F
100
AcDbEntity
  8
0
 62
     0
 48
0.3
100
AcDbLine
 10
542.7398340899476
 20
1244.727366149626
 30
0.0
 11
542.7398340899476
 21
1247.227366149626
 31
0.0
  0
LINE
  5
A838
330
1F
100
AcDbEntity
  8
0
 48
0.5
100
AcDbLine
 10
549.7398340899476
 20
1255.610493062642
 30
0.0
 11
549.7398340899476
 21
1253.110493062642
 31
0.0
  0
LINE
  5
A839
330
1F
100
AcDbEntity
  8
0
 62
     0
 48
0.3
100
AcDbLine
 10
549.7398340899476
 20
1247.227366149626
 30
0.0
 11
549.7398340899476
 21
1253.110493062642
 31
0.0
  0
LINE
  5
A83A
330
1F
100
AcDbEntity
  8
0
 62
     0
 48
0.3
100
AcDbLine
 10
548.7398340899476
 20
1244.727366149626
 30
0.0
 11
548.7398340899476
 21
1247.227366149626
 31
0.0
  0
LINE
  5
A840
330
1F
100
AcDbEntity
  8
0
 62
     0
 48
0.3
100
AcDbLine
 10
541.7398340899476
 20
1287.110423284186
 30
0.0
 11
549.7398340899476
 21
1287.110423284186
 31
0.0
  0
LINE
  5
A841
330
1F
100
AcDbEntity
  8
0
 62
     0
 48
0.3
100
AcDbLine
 10
548.7398340899476
 20
1287.110423284186
 30
0.0
 11
542.7398340899476
 21
1287.110423284186
 31
0.0
  0
LINE
  5
A842
330
1F
100
AcDbEntity
  8
0
 62
     0
 48
0.3
100
AcDbLine
 10
545.7398340899476
 20
1287.110423284186
 30
0.0
 11
548.7398340899476
 21
1287.110423284186
 31
0.0
  0
ARC
  5
A843
330
1F
100
AcDbEntity
  8
0
 62
     0
 48
0.3
100
AcDbCircle
 10
545.7398340899476
 20
1290.610423284186
 30
0.0
 40
4.0
100
AcDbArc
 50
0.0
 51
180.0
  0
LINE
  5
A844
330
1F
100
AcDbEntity
  8
0
 62
     0
 48
0.3
100
AcDbLine
 10
541.7398340899476
 20
1289.610423284186
 30
0.0
 11
549.7398340899476
 21
1289.610423284186
 31
0.0
  0
LINE
  5
A847
330
1F
100
AcDbEntity
  8
0
 62
     0
 48
0.3
100
AcDbLine
 10
542.7398340899476
 20
1287.110423284186
 30
0.0
 11
542.7398340899476
 21
1288.398363190027
 31
0.0
  0
LINE
  5
A848
330
1F
100
AcDbEntity
  8
0
 62
     0
 48
0.3
100
AcDbLine
 10
541.7398340899476
 20
1278.595341379146
 30
0.0
 11
541.7398340899476
 21
1287.110423284186
 31
0.0
  0
LINE
  5
A849
330
1F
100
AcDbEntity
  8
0
 62
     0
 48
0.3
100
AcDbLine
 10
541.7398340899476
 20
1289.610423284186
 30
0.0
 11
541.7398340899476
 21
1290.640668815133
 31
0.0
  0
LINE
  5
A84B
330
1F
100
AcDbEntity
  8
0
 62
     0
 48
0.3
100
AcDbLine
 10
548.7398340899476
 20
1287.110423284186
 30
0.0
 11
548.7398340899476
 21
1288.398363190027
 31
0.0
  0
LINE
  5
A84C
330
1F
100
AcDbEntity
  8
0
 62
     0
 48
0.3
100
AcDbLine
 10
549.7398340899476
 20
1278.595341379146
 30
0.0
 11
549.7398340899476
 21
1287.110423284186
 31
0.0
  0
LINE
  5
A84D
330
1F
100
AcDbEntity
  8
0
 62
     0
 48
0.3
100
AcDbLine
 10
549.7398340899476
 20
1289.610423284186
 30
0.0
 11
549.7398340899476
 21
1290.610423284186
 31
0.0
  0
LINE
  5
A84E
330
1F
100
AcDbEntity
  8
0
 62
     0
 48
0.3
100
AcDbLine
 10
549.7398340899476
 20
1289.610423284186
 30
0.0
 11
549.7398340899476
 21
1290.610423284186
 31
0.0
  0
LINE
  5
A851
330
1F
100
AcDbEntity
  8
0
 62
     0
 48
0.5
100
AcDbLine
 10
77.80408721017352
 20
1192.264175107458
 30
0.0
 11
77.80408721017352
 21
1131.555574191288
 31
0.0
  0
LINE
  5
A852
330
1F
100
AcDbEntity
  8
0
 62
     0
 48
0.5
100
AcDbLine
 10
69.76177721664601
 20
1192.264175107458
 30
0.0
 11
69.76177721664601
 21
1131.555574191288
 31
0.0
  0
LINE
  5
A853
330
1F
100
AcDbEntity
  8
0
 62
     0
 48
0.5
100
AcDbLine
 10
86.26177721664602
 20
1120.583155289057
 30
0.0
 11
86.26177721664602
 21
1234.458671399505
 31
0.0
  0
LINE
  5
A855
330
1F
100
AcDbEntity
  8
0
 62
     0
 48
0.5
100
AcDbLine
 10
81.26177721664602
 20
1120.583155289057
 30
0.0
 11
86.26177721664602
 21
1120.583155289057
 31
0.0
  0
LINE
  5
A856
330
1F
100
AcDbEntity
  8
0
 62
     0
 48
0.5
100
AcDbLine
 10
61.26177721664601
 20
1127.858431063778
 30
0.0
 11
86.26177721664602
 21
1127.858431063778
 31
0.0
  0
LINE
  5
A857
330
1F
100
AcDbEntity
  8
0
 62
     0
 48
0.5
100
AcDbLine
 10
61.26177721664601
 20
1120.583155289057
 30
0.0
 11
81.26177721664602
 21
1120.583155289057
 31
0.0
  0
ARC
  5
A858
330
1F
100
AcDbEntity
  8
0
 62
     0
 48
0.5
100
AcDbCircle
 10
63.41998223021994
 20
1124.220793176418
 30
0.0
 40
3.637637887360824
100
AcDbArc
 50
126.3914291071476
 51
233.6085708928523
  0
LINE
  5
A859
330
1F
100
AcDbEntity
  8
0
 62
     0
 48
0.5
100
AcDbLine
 10
61.26177721664601
 20
1125.583155289057
 30
0.0
 11
61.26177721664601
 21
1126.583155289057
 31
0.0
  0
LINE
  5
A85A
330
1F
100
AcDbEntity
  8
0
 62
     0
 48
0.5
100
AcDbLine
 10
61.26177721664601
 20
1120.583155289057
 30
0.0
 11
61.26177721664601
 21
1125.583155289057
 31
0.0
  0
ARC
  5
A85B
330
1F
100
AcDbEntity
  8
0
 62
     0
 48
0.5
100
AcDbCircle
 10
73.78293221340971
 20
1136.567604193295
 30
0.0
 40
6.42573982114267
100
AcDbArc
 50
231.2599048803176
 51
308.7400951196823
  0
LINE
  5
A85C
330
1F
100
AcDbEntity
  8
0
 62
     0
 48
0.5
100
AcDbLine
 10
69.76177721664601
 20
1127.858431063778
 30
0.0
 11
69.76177721664601
 21
1120.583155289057
 31
0.0
  0
LINE
  5
A85D
330
1F
100
AcDbEntity
  8
0
 62
     0
 48
0.5
100
AcDbLine
 10
77.80408721017352
 20
1127.858431063778
 30
0.0
 11
77.80408721017352
 21
1120.583155289057
 31
0.0
  0
ARC
  5
A85E
330
1F
100
AcDbEntity
  8
0
 62
     0
 48
0.5
100
AcDbCircle
 10
86.26177721664602
 20
1124.220793176418
 30
0.0
 40
3.637637887360824
100
AcDbArc
 50
270.0
 51
90.0
  0
LINE
  5
A85F
330
1F
100
AcDbEntity
  8
0
 62
     0
 48
0.3
100
AcDbLine
 10
69.76177721664601
 20
1255.610493062642
 30
0.0
 11
69.76177721664601
 21
1285.345749503269
 31
0.0
  0
LINE
  5
A860
330
1F
100
AcDbEntity
  8
0
 62
     0
 48
0.3
100
AcDbLine
 10
77.76177721664601
 20
1255.610493062642
 30
0.0
 11
77.76177721664601
 21
1285.345749503269
 31
0.0
  0
LINE
  5
A861
330
1F
100
AcDbEntity
  8
0
 62
     0
 48
0.5
100
AcDbLine
 10
77.99175799682519
 20
1192.264175107458
 30
0.0
 11
86.26177721664602
 21
1192.264175107458
 31
0.0
  0
ARC
  5
A862
330
1F
100
AcDbEntity
  8
0
 48
0.5
100
AcDbCircle
 10
73.76177721664601
 20
1177.251937145872
 30
0.0
 40
58.5564722636689
100
AcDbArc
 50
77.6742691757416
 51
102.3257308242583
  0
LINE
  5
A864
330
1F
100
AcDbEntity
  8
0
 62
     0
 48
0.5
100
AcDbLine
 10
61.44944800329767
 20
1192.264175107458
 30
0.0
 11
69.94944800329768
 21
1192.264175107458
 31
0.0
  0
LINE
  5
A865
330
1F
100
AcDbEntity
  8
0
 62
     0
100
AcDbLine
 10
79.55183034117931
 20
1206.3055838197
 30
0.0
 11
73.95152142413611
 21
1209.5389236805
 31
0.0
  0
LINE
  5
A866
330
1F
100
AcDbEntity
  8
0
 62
     0
100
AcDbLine
 10
79.55183034117931
 20
1206.3055838197
 30
0.0
 11
73.95152142413611
 21
1209.5389236805
 31
0.0
  0
LINE
  5
A867
330
1F
100
AcDbEntity
  8
0
 62
     0
100
AcDbLine
 10
73.94737458245936
 20
1196.598381696824
 30
0.0
 11
79.549756920341
 21
1199.835312827862
 31
0.0
  0
ARC
  5
A868
330
1F
100
AcDbEntity
  8
0
 62
     0
 48
0.5
100
AcDbCircle
 10
73.97060300006137
 20
1187.252145105451
 30
0.0
 40
6.42573982114267
100
AcDbArc
 50
51.25990488031764
 51
128.7400951196823
  0
CIRCLE
  5
A869
330
1F
100
AcDbEntity
  8
0
 62
     0
100
AcDbCircle
 10
73.94944800329767
 20
1203.068652688662
 30
0.0
 40
5.601345915277712
  0
LINE
  5
A86A
330
1F
100
AcDbEntity
  8
0
 62
     0
100
AcDbLine
 10
73.95152142413611
 20
1209.5389236805
 30
0.0
 11
68.34913908625435
 21
1206.301992549462
 31
0.0
  0
LINE
  5
A86B
330
1F
100
AcDbEntity
  8
0
 62
     0
100
AcDbLine
 10
68.34706566541604
 20
1199.831721557624
 30
0.0
 11
73.94737458245936
 21
1196.598381696824
 31
0.0
  0
LINE
  5
A86C
330
1F
100
AcDbEntity
  8
0
 62
     0
100
AcDbLine
 10
68.34706566541604
 20
1199.831721557624
 30
0.0
 11
73.94737458245936
 21
1196.598381696824
 31
0.0
  0
LINE
  5
A86D
330
1F
100
AcDbEntity
  8
0
 62
     0
100
AcDbLine
 10
68.34913908625435
 20
1206.301992549462
 30
0.0
 11
68.34706566541604
 21
1199.831721557624
 31
0.0
  0
LINE
  5
A86E
330
1F
100
AcDbEntity
  8
0
 62
     0
100
AcDbLine
 10
79.549756920341
 20
1199.835312827862
 30
0.0
 11
79.55183034117931
 21
1206.3055838197
 31
0.0
  0
LINE
  5
A871
330
1F
100
AcDbEntity
  8
0
 62
     0
 48
0.3
100
AcDbLine
 10
69.76177721664601
 20
1239.727366149626
 30
0.0
 11
69.76177721664601
 21
1244.727366149626
 31
0.0
  0
LINE
  5
A872
330
1F
100
AcDbEntity
  8
0
 48
0.5
100
AcDbLine
 10
69.76177721664601
 20
1239.727366149626
 30
0.0
 11
69.76177721664601
 21
1244.357366149626
 31
0.0
  0
LINE
  5
A873
330
1F
100
AcDbEntity
  8
0
 62
     0
 48
0.3
100
AcDbLine
 10
77.76177721664601
 20
1239.727366149626
 30
0.0
 11
77.76177721664601
 21
1244.727366149626
 31
0.0
  0
LINE
  5
A874
330
1F
100
AcDbEntity
  8
0
 62
     0
 48
0.5
100
AcDbLine
 10
69.76177721664601
 20
1239.727366149626
 30
0.0
 11
77.76177721664601
 21
1239.727366149626
 31
0.0
  0
LINE
  5
A875
330
1F
100
AcDbEntity
  8
0
 62
     0
100
AcDbLine
 10
73.94737458245936
 20
1216.598381696824
 30
0.0
 11
79.549756920341
 21
1219.835312827862
 31
0.0
  0
LINE
  5
A876
330
1F
100
AcDbEntity
  8
0
 62
     0
100
AcDbLine
 10
79.55183034117931
 20
1226.3055838197
 30
0.0
 11
73.95152142413611
 21
1229.538923680499
 31
0.0
  0
LINE
  5
A877
330
1F
100
AcDbEntity
  8
0
 62
     0
100
AcDbLine
 10
79.55183034117931
 20
1226.3055838197
 30
0.0
 11
73.95152142413611
 21
1229.538923680499
 31
0.0
  0
CIRCLE
  5
A878
330
1F
100
AcDbEntity
  8
0
 62
     0
100
AcDbCircle
 10
73.94944800329767
 20
1223.068652688662
 30
0.0
 40
5.601345915277712
  0
LINE
  5
A879
330
1F
100
AcDbEntity
  8
0
 62
     0
100
AcDbLine
 10
68.34913908625435
 20
1226.301992549462
 30
0.0
 11
68.34706566541604
 21
1219.831721557625
 31
0.0
  0
LINE
  5
A87A
330
1F
100
AcDbEntity
  8
0
 62
     0
100
AcDbLine
 10
68.34706566541604
 20
1219.831721557625
 30
0.0
 11
73.94737458245936
 21
1216.598381696824
 31
0.0
  0
LINE
  5
A87B
330
1F
100
AcDbEntity
  8
0
 62
     0
100
AcDbLine
 10
68.34706566541604
 20
1219.831721557625
 30
0.0
 11
73.94737458245936
 21
1216.598381696824
 31
0.0
  0
LINE
  5
A87C
330
1F
100
AcDbEntity
  8
0
 62
     0
100
AcDbLine
 10
73.95152142413611
 20
1229.538923680499
 30
0.0
 11
68.34913908625435
 21
1226.301992549462
 31
0.0
  0
LINE
  5
A87D
330
1F
100
AcDbEntity
  8
0
 62
     0
100
AcDbLine
 10
79.549756920341
 20
1219.835312827862
 30
0.0
 11
79.55183034117931
 21
1226.3055838197
 31
0.0
  0
LINE
  5
A87E
330
1F
100
AcDbEntity
  8
0
 62
     0
 48
0.3
100
AcDbLine
 10
69.76177721664601
 20
1247.227366149626
 30
0.0
 11
77.76177721664601
 21
1247.227366149626
 31
0.0
  0
LINE
  5
A87F
330
1F
100
AcDbEntity
  8
0
 62
     0
 48
0.3
100
AcDbLine
 10
69.76177721664601
 20
1244.727366149626
 30
0.0
 11
77.76177721664601
 21
1244.727366149626
 31
0.0
  0
LINE
  5
A880
330
1F
100
AcDbEntity
  8
0
 62
     0
 48
0.3
100
AcDbLine
 10
76.761777216646
 20
1244.727366149626
 30
0.0
 11
70.76177721664601
 21
1244.727366149626
 31
0.0
  0
LINE
  5
A881
330
1F
100
AcDbEntity
  8
0
 62
     0
 48
0.3
100
AcDbLine
 10
73.76177721664601
 20
1244.727366149626
 30
0.0
 11
76.761777216646
 21
1244.727366149626
 31
0.0
  0
LINE
  5
A882
330
1F
100
AcDbEntity
  8
0
 48
0.5
100
AcDbLine
 10
69.76177721664601
 20
1253.110493062642
 30
0.0
 11
69.76177721664601
 21
1255.610493062642
 31
0.0
  0
LINE
  5
A883
330
1F
100
AcDbEntity
  8
0
 62
     0
 48
0.3
100
AcDbLine
 10
69.76177721664601
 20
1247.227366149626
 30
0.0
 11
69.76177721664601
 21
1253.110493062642
 31
0.0
  0
LINE
  5
A884
330
1F
100
AcDbEntity
  8
0
 62
     0
 48
0.3
100
AcDbLine
 10
70.76177721664601
 20
1244.727366149626
 30
0.0
 11
70.76177721664601
 21
1247.227366149626
 31
0.0
  0
LINE
  5
A885
330
1F
100
AcDbEntity
  8
0
 48
0.5
100
AcDbLine
 10
77.76177721664601
 20
1255.610493062642
 30
0.0
 11
77.76177721664601
 21
1253.110493062642
 31
0.0
  0
LINE
  5
A886
330
1F
100
AcDbEntity
  8
0
 62
     0
 48
0.3
100
AcDbLine
 10
77.76177721664601
 20
1247.227366149626
 30
0.0
 11
77.76177721664601
 21
1253.110493062642
 31
0.0
  0
LINE
  5
A887
330
1F
100
AcDbEntity
  8
0
 62
     0
 48
0.3
100
AcDbLine
 10
76.761777216646
 20
1244.727366149626
 30
0.0
 11
76.761777216646
 21
1247.227366149626
 31
0.0
  0
LINE
  5
A88C
330
1F
100
AcDbEntity
  8
0
 62
     0
 48
0.3
100
AcDbLine
 10
69.76177721664601
 20
1287.110423284186
 30
0.0
 11
77.76177721664601
 21
1287.110423284186
 31
0.0
  0
LINE
  5
A88D
330
1F
100
AcDbEntity
  8
0
 62
     0
 48
0.3
100
AcDbLine
 10
76.761777216646
 20
1287.110423284186
 30
0.0
 11
70.76177721664601
 21
1287.110423284186
 31
0.0
  0
LINE
  5
A88E
330
1F
100
AcDbEntity
  8
0
 62
     0
 48
0.3
100
AcDbLine
 10
73.76177721664601
 20
1287.110423284186
 30
0.0
 11
76.761777216646
 21
1287.110423284186
 31
0.0
  0
ARC
  5
A88F
330
1F
100
AcDbEntity
  8
0
 62
     0
 48
0.3
100
AcDbCircle
 10
73.76177721664601
 20
1290.610423284186
 30
0.0
 40
4.0
100
AcDbArc
 50
0.0
 51
180.0
  0
LINE
  5
A890
330
1F
100
AcDbEntity
  8
0
 62
     0
 48
0.3
100
AcDbLine
 10
69.76177721664601
 20
1289.610423284186
 30
0.0
 11
77.76177721664601
 21
1289.610423284186
 31
0.0
  0
LINE
  5
A894
330
1F
100
AcDbEntity
  8
0
 62
     0
 48
0.3
100
AcDbLine
 10
69.76177721664601
 20
1278.595341379146
 30
0.0
 11
69.76177721664601
 21
1287.110423284186
 31
0.0
  0
LINE
  5
A895
330
1F
100
AcDbEntity
  8
0
 62
     0
 48
0.3
100
AcDbLine
 10
69.76177721664601
 20
1289.610423284186
 30
0.0
 11
69.76177721664601
 21
1290.640668815133
 31
0.0
  0
LINE
  5
A898
330
1F
100
AcDbEntity
  8
0
 62
     0
 48
0.3
100
AcDbLine
 10
77.76177721664601
 20
1278.595341379146
 30
0.0
 11
77.76177721664601
 21
1287.110423284186
 31
0.0
  0
LINE
  5
A899
330
1F
100
AcDbEntity
  8
0
 62
     0
 48
0.3
100
AcDbLine
 10
77.76177721664601
 20
1289.610423284186
 30
0.0
 11
77.76177721664601
 21
1290.610423284186
 31
0.0
  0
LINE
  5
A89A
330
1F
100
AcDbEntity
  8
0
 62
     0
 48
0.3
100
AcDbLine
 10
77.76177721664601
 20
1289.610423284186
 30
0.0
 11
77.76177721664601
 21
1290.610423284186
 31
0.0
  0
LINE
  5
A89C
330
1F
100
AcDbEntity
  8
0
 48
0.5
100
AcDbLine
 10
248.9285156150145
 20
1288.260423284186
 30
0.0
 11
300.9494480032977
 21
1288.260423284186
 31
0.0
  0
DIMENSION
  5
A89D
330
1F
100
AcDbEntity
  8
0
 48
0.5
100
AcDbDimension
  2
*D7
 10
199.8120328371089
 20
1032.560650792393
 30
0.0
 11
217.5263185513946
 21
1038.560650792393
 31
0.0
 70
    33
  1
%%c8
 71
     5
 42
8.0
  3
ISO-25
100
AcDbAlignedDimension
 13
191.8120328371089
 23
1036.673161620019
 33
0.0
 14
199.8120328371089
 24
1036.673161620019
 34
0.0
  0
DIMENSION
  5
A8B8
330
1F
100
AcDbEntity
  8
0
 48
0.5
100
AcDbDimension
  2
*D8
 10
176.5551613278043
 20
997.8083133035157
 30
0.0
 11
170.5551613278042
 21
1025.248278414287
 31
0.0
 70
    33
  1
55
 71
     5
 42
54.87993022154376
  3
ISO-25
100
AcDbAlignedDimension
 13
195.8120328371089
 23
1052.688243525059
 33
0.0
 14
195.8120328371089
 24
997.8083133035157
 34
0.0
  0
LINE
  5
A8CF
330
1F
100
AcDbEntity
  8
0
 48
0.5
100
AcDbLine
 10
323.3744401295428
 20
997.8083133035154
 30
0.0
 11
313.3744401295428
 21
997.8083133035154
 31
0.0
  0
LINE
  5
A8D0
330
1F
100
AcDbEntity
  8
0
 48
0.5
100
AcDbLine
 10
313.3744401295428
 20
997.8083133035154
 30
0.0
 11
313.3744401295428
 21
993.029161857034
 31
0.0
  0
LINE
  5
A8D2
330
1F
100
AcDbEntity
  8
0
 48
0.5
100
AcDbLine
 10
333.3744401295427
 20
993.029161857034
 30
0.0
 11
333.3744401295427
 21
997.8083133035156
 31
0.0
  0
LINE
  5
A8D3
330
1F
100
AcDbEntity
  8
0
 48
0.5
100
AcDbLine
 10
313.3744401295428
 20
997.8083133035156
 30
0.0
 11
333.3744401295427
 21
997.8083133035156
 31
0.0
  0
LINE
  5
A8D6
330
1F
100
AcDbEntity
  8
0
 48
0.5
100
AcDbLine
 10
293.9494480032976
 20
1239.727366149626
 30
0.0
 11
313.9494480032976
 21
1239.727366149626
 31
0.0
  0
LINE
  5
A8D7
330
1F
100
AcDbEntity
  8
0
 48
0.5
100
AcDbLine
 10
303.9494480032976
 20
1239.727366149626
 30
0.0
 11
293.9494480032976
 21
1239.727366149626
 31
0.0
  0
LINE
  5
A8D8
330
1F
100
AcDbEntity
  8
0
 48
0.5
100
AcDbLine
 10
293.9494480032976
 20
1239.727366149626
 30
0.0
 11
293.9494480032976
 21
1234.948214703145
 31
0.0
  0
LINE
  5
A8D9
330
1F
100
AcDbEntity
  8
0
 62
     0
 48
0.5
100
AcDbLine
 10
299.9494480032976
 20
1239.727366149626
 30
0.0
 11
307.9494480032976
 21
1239.727366149626
 31
0.0
  0
LINE
  5
A8DA
330
1F
100
AcDbEntity
  8
0
 48
0.5
100
AcDbLine
 10
313.9494480032976
 20
1234.948214703145
 30
0.0
 11
313.9494480032976
 21
1239.727366149626
 31
0.0
  0
LINE
  5
A8DB
330
1F
100
AcDbEntity
  8
0
 48
0.5
100
AcDbLine
 10
293.9494480032976
 20
1239.727366149626
 30
0.0
 11
313.9494480032976
 21
1239.727366149626
 31
0.0
  0
LINE
  5
A8DC
330
1F
100
AcDbEntity
  8
0
 62
     0
 48
0.5
100
AcDbLine
 10
291.4494480032976
 20
1234.458671399505
 30
0.0
 11
291.4494480032976
 21
1120.583155289057
 31
0.0
  0
LINE
  5
A8DF
330
1F
100
AcDbEntity
  8
0
 48
0.5
100
AcDbLine
 10
535.7398340899476
 20
1239.727366149626
 30
0.0
 11
555.7398340899476
 21
1239.727366149626
 31
0.0
  0
LINE
  5
A8E0
330
1F
100
AcDbEntity
  8
0
 48
0.5
100
AcDbLine
 10
535.7398340899476
 20
1239.727366149626
 30
0.0
 11
555.7398340899476
 21
1239.727366149626
 31
0.0
  0
LINE
  5
A8E1
330
1F
100
AcDbEntity
  8
0
 48
0.5
100
AcDbLine
 10
545.7398340899476
 20
1239.727366149626
 30
0.0
 11
535.7398340899476
 21
1239.727366149626
 31
0.0
  0
LINE
  5
A8E2
330
1F
100
AcDbEntity
  8
0
 48
0.5
100
AcDbLine
 10
535.7398340899476
 20
1239.727366149626
 30
0.0
 11
535.7398340899476
 21
1234.948214703145
 31
0.0
  0
LINE
  5
A8E3
330
1F
100
AcDbEntity
  8
0
 62
     0
 48
0.5
100
AcDbLine
 10
541.7398340899476
 20
1239.727366149626
 30
0.0
 11
549.7398340899476
 21
1239.727366149626
 31
0.0
  0
LINE
  5
A8E4
330
1F
100
AcDbEntity
  8
0
 62
     0
 48
0.5
100
AcDbLine
 10
541.7398340899476
 20
1239.727366149626
 30
0.0
 11
549.7398340899476
 21
1239.727366149626
 31
0.0
  0
LINE
  5
A8E5
330
1F
100
AcDbEntity
  8
0
 48
0.5
100
AcDbLine
 10
555.7398340899476
 20
1234.948214703145
 30
0.0
 11
555.7398340899476
 21
1239.727366149626
 31
0.0
  0
LINE
  5
A8E6
330
1F
100
AcDbEntity
  8
0
 48
0.5
100
AcDbLine
 10
535.7398340899476
 20
1239.727366149626
 30
0.0
 11
555.7398340899476
 21
1239.727366149626
 31
0.0
  0
LINE
  5
A8E9
330
1F
100
AcDbEntity
  8
0
 62
     0
 48
0.5
100
AcDbLine
 10
533.2398340899476
 20
1234.458671399505
 30
0.0
 11
533.2398340899476
 21
1120.583155289057
 31
0.0
  0
LINE
  5
A8EA
330
1F
100
AcDbEntity
  8
0
 48
0.5
100
AcDbLine
 10
63.76177721664601
 20
1239.727366149626
 30
0.0
 11
83.76177721664602
 21
1239.727366149626
 31
0.0
  0
LINE
  5
A8EB
330
1F
100
AcDbEntity
  8
0
 48
0.5
100
AcDbLine
 10
63.76177721664601
 20
1239.727366149626
 30
0.0
 11
83.76177721664602
 21
1239.727366149626
 31
0.0
  0
LINE
  5
A8EC
330
1F
100
AcDbEntity
  8
0
 48
0.5
100
AcDbLine
 10
73.76177721664601
 20
1239.727366149626
 30
0.0
 11
63.76177721664601
 21
1239.727366149626
 31
0.0
  0
LINE
  5
A8ED
330
1F
100
AcDbEntity
  8
0
 48
0.5
100
AcDbLine
 10
63.76177721664601
 20
1239.727366149626
 30
0.0
 11
63.76177721664601
 21
1234.948214703144
 31
0.0
  0
LINE
  5
A8EE
330
1F
100
AcDbEntity
  8
0
 62
     0
 48
0.5
100
AcDbLine
 10
69.76177721664601
 20
1239.727366149626
 30
0.0
 11
77.76177721664601
 21
1239.727366149626
 31
0.0
  0
LINE
  5
A8EF
330
1F
100
AcDbEntity
  8
0
 62
     0
 48
0.5
100
AcDbLine
 10
69.76177721664601
 20
1239.727366149626
 30
0.0
 11
77.76177721664601
 21
1239.727366149626
 31
0.0
  0
LINE
  5
A8F0
330
1F
100
AcDbEntity
  8
0
 48
0.5
100
AcDbLine
 10
83.76177721664602
 20
1234.948214703144
 30
0.0
 11
83.76177721664602
 21
1239.727366149626
 31
0.0
  0
LINE
  5
A8F1
330
1F
100
AcDbEntity
  8
0
 48
0.5
100
AcDbLine
 10
63.761777216646
 20
1239.727366149626
 30
0.0
 11
83.76177721664602
 21
1239.727366149626
 31
0.0
  0
LINE
  5
A8F3
330
1F
100
AcDbEntity
  8
0
 62
     0
 48
0.5
100
AcDbLine
 10
61.26177721664601
 20
1234.458671399505
 30
0.0
 11
61.26177721664601
 21
1120.583155289057
 31
0.0
  0
LINE
  5
A92F
330
1F
100
AcDbEntity
  8
0
 62
     0
 48
0.3
100
AcDbLine
 10
200.3120328371089
 20
964.3824532994615
 30
0.0
 11
203.3120328371089
 21
964.3824532994617
 31
0.0
  0
LINE
  5
A930
330
1F
100
AcDbEntity
  8
0
 62
     0
 48
0.3
100
AcDbLine
 10
203.3120328371089
 20
958.3824532994619
 30
0.0
 11
200.3120328371089
 21
958.3824532994617
 31
0.0
  0
LINE
  5
A931
330
1F
100
AcDbEntity
  8
0
 62
     0
 48
0.3
100
AcDbLine
 10
200.3120328371089
 20
963.8824532994618
 30
0.0
 11
203.3120328371088
 21
963.8824532994616
 31
0.0
  0
LINE
  5
A932
330
1F
100
AcDbEntity
  8
0
 62
     0
 48
0.3
100
AcDbLine
 10
200.3120328371089
 20
958.8824532994616
 30
0.0
 11
203.3120328371089
 21
958.8824532994619
 31
0.0
  0
LINE
  5
A933
330
1F
100
AcDbEntity
  8
0
 62
     0
 48
0.3
100
AcDbLine
 10
200.3120328371089
 20
984.3824532994617
 30
0.0
 11
203.3120328371089
 21
984.382453299462
 31
0.0
  0
LINE
  5
A934
330
1F
100
AcDbEntity
  8
0
 62
     0
 48
0.3
100
AcDbLine
 10
200.3120328371089
 20
983.8824532994618
 30
0.0
 11
203.3120328371088
 21
983.8824532994618
 31
0.0
  0
LINE
  5
A935
330
1F
100
AcDbEntity
  8
0
 62
     0
 48
0.3
100
AcDbLine
 10
203.3120328371089
 20
978.3824532994618
 30
0.0
 11
200.3120328371089
 21
978.3824532994616
 31
0.0
  0
LINE
  5
A936
330
1F
100
AcDbEntity
  8
0
 62
     0
 48
0.3
100
AcDbLine
 10
200.3120328371089
 20
978.8824532994619
 30
0.0
 11
203.3120328371089
 21
978.882453299462
 31
0.0
  0
LWPOLYLINE
  5
A937
330
1F
100
AcDbEntity
  8
0
 48
0.5
100
AcDbPolyline
 90
        4
 70
     1
 43
0.0
 10
540.5312932635616
 20
940.5525121697182
 10
578.6426666143811
 20
940.5525121697182
 10
578.6426666143811
 20
929.2787400029601
 10
540.5312932635616
 20
929.2787400029601
  0
VIEWPORT
  5
2F
330
1B
100
AcDbEntity
 67
     1
  8
0
100
AcDbViewport
 10
210.8645862540714
 20
149.7815185269692
 30
0.0
 40
479.1862016322689
 41
324.9607266531437
 68
     1
 69
     1
 12
210.8645862540714
 22
149.7815185269692
 13
0.0
 23
0.0
 14
10.0
 24
10.0
 15
10.0
 25
10.0
 16
0.0
 26
0.0
 36
1.0
 17
0.0
 27
0.0
 37
0.0
 42
50.0
 43
0.0
 44
0.0
 45
324.9607266531437
 50
0.0
 51
0.0
 72
   100
 90
    32800
  1

281
     0
 71
     1
 74
     0
110
0.0
120
0.0
130
0.0
111
1.0
121
0.0
131
0.0
112
0.0
122
1.0
132
0.0
 79
     0
146
0.0
  0
LWPOLYLINE
  5
AA
330
1B
100
AcDbEntity
 67
     1
  8
２
 62
     0
100
AcDbPolyline
 90
        4
 70
     1
 43
0.0
 10
1.042221639059562
 20
284.1844718556203
 10
407.757958684845
 20
284.1844718556203
 10
407.757958684845
 20
1.08829855961801
 10
1.042221639059562
 20
1.08829855961801
  0
MTEXT
  5
DC
330
1B
100
AcDbEntity
 67
     1
  8
２
 62
     0
100
AcDbMText
 10
275.257958684845
 20
4.588298559618024
 30
0.0
 40
3.0
 41
55.0
 71
     5
 72
     5
  1
{\fMS UI Gothic|b0|i0|c128|p50;株式会社 アルティマ}
 73
     1
 44
1.0
  0
LINE
  5
DD
330
1B
100
AcDbEntity
 67
     1
  8
２
 62
     0
100
AcDbLine
 10
262.757958684845
 20
8.088298559618039
 30
0.0
 11
302.757958684845
 21
8.088298559618039
 31
0.0
  0
LINE
  5
DE
330
1B
100
AcDbEntity
 67
     1
  8
２
 62
     0
100
AcDbLine
 10
342.7579586848451
 20
23.08829855961798
 30
0.0
 11
247.757958684845
 21
23.08829855961792
 31
0.0
  0
LINE
  5
DF
330
1B
100
AcDbEntity
 67
     1
  8
２
 62
     0
100
AcDbLine
 10
247.7579586848449
 20
18.08829855961798
 30
0.0
 11
342.7579586848451
 21
18.08829855961798
 31
0.0
  0
LINE
  5
E0
330
1B
100
AcDbEntity
 67
     1
  8
２
 62
     0
100
AcDbLine
 10
342.7579586848451
 20
13.08829855961801
 30
0.0
 11
247.7579586848451
 21
13.08829855961798
 31
0.0
  0
LINE
  5
E1
330
1B
100
AcDbEntity
 67
     1
  8
２
 62
     0
100
AcDbLine
 10
352.757958684845
 20
8.08829855961801
 30
0.0
 11
252.8023834435082
 21
8.088298559618039
 31
0.0
  0
LINE
  5
E2
330
1B
100
AcDbEntity
 67
     1
  8
２
 62
     0
100
AcDbLine
 10
407.7579586848449
 20
28.08829855961801
 30
0.0
 11
247.7579586848449
 21
28.08829855961803
 31
0.0
  0
MTEXT
  5
E3
330
1B
100
AcDbEntity
 67
     1
  8
２
 62
     0
100
AcDbMText
 10
255.2579586848449
 20
25.58829855961798
 30
0.0
 40
2.0
 41
15.0
 71
     5
 72
     5
  1
{\fMS UI Gothic|b0|i0|c128|p50;パーツ}
 73
     1
 44
1.0
  0
LINE
  5
E4
330
1B
100
AcDbEntity
 67
     1
  8
２
 62
     0
100
AcDbLine
 10
247.7579586848449
 20
8.088298559618039
 30
0.0
 11
262.757958684845
 21
8.088298559618039
 31
0.0
  0
LINE
  5
E5
330
1B
100
AcDbEntity
 67
     1
  8
２
 62
     0
100
AcDbLine
 10
247.7579586848451
 20
13.08829855961798
 30
0.0
 11
247.7579586848449
 21
18.08829855961798
 31
0.0
  0
LINE
  5
E6
330
1B
100
AcDbEntity
 67
     1
  8
２
 62
     0
100
AcDbLine
 10
247.7579586848449
 20
28.08829855961803
 30
0.0
 11
247.7579586848449
 21
9.237389132921862
 31
0.0
  0
LINE
  5
E7
330
1B
100
AcDbEntity
 67
     1
  8
２
 62
     0
100
AcDbLine
 10
247.7579586848449
 20
9.237389132921862
 30
0.0
 11
247.7579586848449
 21
1.088298559618039
 31
0.0
  0
LINE
  5
E8
330
1B
100
AcDbEntity
 67
     1
  8
２
 62
     0
100
AcDbLine
 10
262.757958684845
 20
8.088298559618039
 30
0.0
 11
262.757958684845
 21
28.08829855961803
 31
0.0
  0
LINE
  5
EC
330
1B
100
AcDbEntity
 67
     1
  8
２
 62
     0
100
AcDbLine
 10
407.757958684845
 20
8.08829855961801
 30
0.0
 11
352.757958684845
 21
8.08829855961801
 31
0.0
  0
MTEXT
  5
ED
330
1B
100
AcDbEntity
 67
     1
  8
２
 62
     0
 48
0.3
100
AcDbMText
 10
317.7579586848451
 20
4.370495529314986
 30
0.0
 40
2.0
 41
20.0
 71
     5
 72
     5
  1
E.Nomura
 73
     1
 44
1.0
  0
MTEXT
  5
EE
330
1B
100
AcDbEntity
 67
     1
  8
２
 62
     0
100
AcDbMText
 10
322.7579586848449
 20
25.588298559618
 30
0.0
 40
2.0
 41
40.0
 71
     5
 72
     5
  1
{\fMS UI Gothic|b0|i0|c128|p50;処　　　理}
 73
     1
 44
1.0
  0
LINE
  5
EF
330
1B
100
AcDbEntity
 67
     1
  8
２
 62
     0
100
AcDbLine
 10
327.757958684845
 20
1.08829855961801
 30
0.0
 11
307.7579586848451
 21
1.08829855961801
 31
0.0
  0
MTEXT
  5
F0
330
1B
100
AcDbEntity
 67
     1
  8
２
 62
     0
100
AcDbMText
 10
282.7579586848449
 20
25.58829855961799
 30
0.0
 40
2.0
 41
40.0
 71
     5
 72
     5
  1
{\fMS UI Gothic|b0|i0|c128|p50;材　　　質}
 73
     1
 44
1.0
  0
LINE
  5
F1
330
1B
100
AcDbEntity
 67
     1
  8
２
 62
     0
100
AcDbLine
 10
302.757958684845
 20
8.088298559618039
 30
0.0
 11
302.757958684845
 21
28.08829855961803
 31
0.0
  0
MTEXT
  5
F2
330
1B
100
AcDbEntity
 67
     1
  8
２
 62
     0
100
AcDbMText
 10
305.2690710641766
 20
4.588298559618021
 30
0.0
 40
2.0
 41
4.9778
 71
     5
 72
     5
  1
{\fMS UI Gothic|b0|i0|c128|p50;製\P図}
 73
     1
 44
1.0
  0
LINE
  5
F3
330
1B
100
AcDbEntity
 67
     1
  8
２
 62
     0
100
AcDbLine
 10
302.757958684845
 20
8.088298559618039
 30
0.0
 11
302.757958684845
 21
1.08829855961801
 31
0.0
  0
LINE
  5
F4
330
1B
100
AcDbEntity
 67
     1
  8
２
 62
     0
100
AcDbLine
 10
307.7579586848451
 20
1.08829855961801
 30
0.0
 11
307.7579586848451
 21
8.08829855961801
 31
0.0
  0
LINE
  5
F5
330
1B
100
AcDbEntity
 67
     1
  8
２
 62
     0
100
AcDbLine
 10
307.7579586848451
 20
8.08829855961801
 30
0.0
 11
302.757958684845
 21
8.088298559618039
 31
0.0
  0
MTEXT
  5
F6
330
1B
100
AcDbEntity
 67
     1
  8
２
 62
     0
100
AcDbMText
 10
347.7579586848451
 20
18.08829855961802
 30
0.0
 40
2.5
 41
10.0
 71
     5
 72
     5
  1
{\fMS UI Gothic|b0|i0|c128|p50;品\P\P名}
 73
     1
 44
1.0
  0
MTEXT
  5
F7
330
1B
100
AcDbEntity
 67
     1
  8
２
 62
     0
100
AcDbMText
 10
347.7579586848451
 20
4.588298559618021
 30
0.0
 40
2.0
 41
10.0
 71
     5
 72
     5
  1
{\fMS UI Gothic|b0|i0|c128|p50;品番}
 73
     1
 44
1.0
  0
LINE
  5
F8
330
1B
100
AcDbEntity
 67
     1
  8
２
 62
     0
100
AcDbLine
 10
342.7579586848451
 20
28.08829855961801
 30
0.0
 11
352.757958684845
 21
28.08829855961801
 31
0.0
  0
LINE
  5
F9
330
1B
100
AcDbEntity
 67
     1
  8
２
 62
     0
100
AcDbLine
 10
352.757958684845
 20
1.08829855961801
 30
0.0
 11
342.7579586848451
 21
1.08829855961801
 31
0.0
  0
LINE
  5
FA
330
1B
100
AcDbEntity
 67
     1
  8
２
 62
     0
100
AcDbLine
 10
342.7579586848451
 20
1.08829855961801
 30
0.0
 11
342.7579586848451
 21
28.08829855961801
 31
0.0
  0
LINE
  5
FB
330
1B
100
AcDbEntity
 67
     1
  8
２
 62
     0
100
AcDbLine
 10
342.7579586848451
 20
1.08829855961801
 30
0.0
 11
332.7579586848451
 21
1.08829855961801
 31
0.0
  0
MTEXT
  5
FC
330
1B
100
AcDbEntity
 67
     1
  8
２
 62
     0
100
AcDbMText
 10
330.2579586848451
 20
4.588298559618017
 30
0.0
 40
2.0
 41
5.0
 71
     5
 72
     5
  1
{\fMS UI Gothic|b0|i0|c128|p50;縮\P尺}
 73
     1
 44
1.0
  0
LINE
  5
FD
330
1B
100
AcDbEntity
 67
     1
  8
２
 62
     0
100
AcDbLine
 10
327.757958684845
 20
8.08829855961801
 30
0.0
 11
327.757958684845
 21
1.08829855961801
 31
0.0
  0
LINE
  5
FE
330
1B
100
AcDbEntity
 67
     1
  8
２
 62
     0
100
AcDbLine
 10
332.7579586848451
 20
1.08829855961801
 30
0.0
 11
332.7579586848451
 21
8.08829855961801
 31
0.0
  0
LINE
  5
FF
330
1B
100
AcDbEntity
 67
     1
  8
２
 62
     0
100
AcDbLine
 10
332.7579586848451
 20
8.08829855961801
 30
0.0
 11
327.757958684845
 21
8.08829855961801
 31
0.0
  0
LINE
  5
100
330
1B
100
AcDbEntity
 67
     1
  8
２
 62
     0
100
AcDbLine
 10
342.7579586848451
 20
8.08829855961801
 30
0.0
 11
342.7579586848451
 21
13.08829855961801
 31
0.0
  0
LINE
  5
101
330
1B
100
AcDbEntity
 67
     1
  8
２
 62
     0
100
AcDbLine
 10
342.7579586848451
 20
18.08829855961798
 30
0.0
 11
342.7579586848451
 21
23.08829855961798
 31
0.0
  0
LINE
  5
102
330
1B
100
AcDbEntity
 67
     1
  8
２
 62
     0
100
AcDbLine
 10
352.757958684845
 20
28.08829855961801
 30
0.0
 11
352.757958684845
 21
8.08829855961801
 31
0.0
  0
LINE
  5
103
330
1B
100
AcDbEntity
 67
     1
  8
２
 62
     0
100
AcDbLine
 10
352.757958684845
 20
8.08829855961801
 30
0.0
 11
352.757958684845
 21
1.08829855961801
 31
0.0
  0
LINE
  5
104
330
1B
100
AcDbEntity
 67
     1
  8
２
 62
     0
100
AcDbLine
 10
407.757958684845
 20
1.08829855961801
 30
0.0
 11
407.7579586848449
 21
28.08829855961801
 31
0.0
  0
LINE
  5
105
330
1B
100
AcDbEntity
 67
     1
  8
２
 62
     0
100
AcDbLine
 10
407.757958684845
 20
1.08829855961801
 30
0.0
 11
407.757958684845
 21
8.08829855961801
 31
0.0
  0
LINE
  5
10E
330
1B
100
AcDbEntity
 67
     1
  8
２
 62
     0
 48
0.3
100
AcDbLine
 10
348.1319795129643
 20
277.1869416790318
 30
0.0
 11
407.82803226079
 21
277.1869416790318
 31
0.0
  0
LINE
  5
10F
330
1B
100
AcDbEntity
 67
     1
  8
２
 62
     0
 48
0.3
100
AcDbLine
 10
348.1319795129643
 20
277.1869416790318
 30
0.0
 11
348.1319795129643
 21
284.1844718556203
 31
0.0
  0
LINE
  5
111
330
1B
100
AcDbEntity
 67
     1
  8
２
 62
     0
 48
0.3
100
AcDbLine
 10
358.9855818391189
 20
284.1844718556203
 30
0.0
 11
358.9855818391189
 21
277.1869416790318
 31
0.0
  0
MTEXT
  5
112
330
1B
100
AcDbEntity
 67
     1
  8
２
 62
     0
100
AcDbMText
 10
255.2579586848451
 20
10.58829855961801
 30
0.0
 40
2.5
 41
15.0
 71
     5
 72
     5
  1
{\fMS UI Gothic|b0|i0|c128|p17;１}
 73
     1
 44
1.0
  0
MTEXT
  5
113
330
1B
100
AcDbEntity
 67
     1
  8
２
 62
     0
100
AcDbMText
 10
255.2579586848449
 20
15.58829855961798
 30
0.0
 40
2.5
 41
15.0
 71
     5
 72
     5
  1
{\fMS UI Gothic|b0|i0|c128|p17;２}
 73
     1
 44
1.0
  0
MTEXT
  5
114
330
1B
100
AcDbEntity
 67
     1
  8
２
 62
     0
100
AcDbMText
 10
255.257958684845
 20
20.58829855961795
 30
0.0
 40
2.5
 41
15.0
 71
     5
 72
     5
  1
{\fMS UI Gothic|b0|i0|c128|p17;３}
 73
     1
 44
1.0
  0
MTEXT
  5
115
330
1B
100
AcDbEntity
 67
     1
  8
２
 62
     0
100
AcDbMText
 10
353.5587795129643
 20
280.6857067673261
 30
0.0
 40
2.5
 41
10.8536
 71
     5
 72
     5
  1
{\fMS UI Gothic|b0|i0|c128|p17;日付}
 73
     1
 44
1.0
  0
MTEXT
  5
1DD
330
1B
100
AcDbEntity
 67
     1
  8
１
100
AcDbMText
 10
187.6389970102438
 20
148.8327383458293
 30
0.0
 40
2.5
 41
0.0
 71
     9
 72
     1
  1

  7
ｽﾀｲﾙ1
 73
     1
 44
1.0
  0
MTEXT
  5
1DF
330
1B
100
AcDbEntity
 67
     1
  8
１
100
AcDbMText
 10
125.9251163363451
 20
100.1557259194321
 30
0.0
 40
2.5
 41
0.0
 71
     9
 72
     1
  1

  7
ｽﾀｲﾙ1
 73
     1
 44
1.0
  0
MTEXT
  5
1F5
330
1B
100
AcDbEntity
 67
     1
  8
１
100
AcDbMText
 10
95.93852678293661
 20
241.1781167614512
 30
0.0
 40
2.5
 41
0.0
 71
     1
 72
     1
  1

  7
ｽﾀｲﾙ1
 73
     1
 44
1.0
  0
MTEXT
  5
1F7
330
1B
100
AcDbEntity
 67
     1
  8
１
100
AcDbMText
 10
103.8845037960281
 20
221.796204377297
 30
0.0
 40
2.5
 41
0.0
 71
     1
 72
     1
  1

  7
ｽﾀｲﾙ1
 73
     1
 44
1.0
  0
ENDSEC
  0
SECTION
  2
OBJECTS
  0
DICTIONARY
  5
C
330
0
100
AcDbDictionary
281
     1
  3
ACAD_GROUP
350
D
  3
ACAD_IMAGE_VARS
350
2B
  3
ACAD_LAYOUT
350
1A
  3
ACAD_MLINESTYLE
350
17
  3
ACAD_PLOTSETTINGS
350
19
  3
ACAD_PLOTSTYLENAME
350
E
  3
AcadDim
350
A8FD
  3
AcDbVariableDictionary
350
65AD
  3
DWGPROPS
350
7E1
  0
DICTIONARY
  5
D
102
{ACAD_REACTORS
330
C
102
}
330
C
100
AcDbDictionary
281
     1
  0
RASTERVARIABLES
  5
2B
102
{ACAD_REACTORS
330
C
102
}
330
C
100
AcDbRasterVariables
 90
        0
 70
     1
 71
     1
 72
     1
  0
DICTIONARY
  5
1A
102
{ACAD_REACTORS
330
C
102
}
330
C
100
AcDbDictionary
281
     1
  3
Model
350
22
  3
ﾚｲｱｳﾄ1
350
1E
  3
ﾚｲｱｳﾄ2
350
26
  0
DICTIONARY
  5
17
102
{ACAD_REACTORS
330
C
102
}
330
C
100
AcDbDictionary
281
     1
  3
Standard
350
18
  0
DICTIONARY
  5
19
102
{ACAD_REACTORS
330
C
102
}
330
C
100
AcDbDictionary
281
     1
  0
ACDBDICTIONARYWDFLT
  5
E
102
{ACAD_REACTORS
330
C
102
}
330
C
100
AcDbDictionary
281
     1
  3
Normal
350
F
100
AcDbDictionaryWithDefault
340
F
  0
XRECORD
  5
A8FD
102
{ACAD_REACTORS
330
C
102
}
330
C
100
AcDbXrecord
280
     1
 90
   990106
  3

 60
     0
 61
     0
 62
     1
 63
     3
 64
     0
 65
     0
 66
     0
 67
     3
 68
     1
 69
     0
 70
     0
 71
     0
 72
     0
 40
3.0
170
     0
340
A786
  0
DICTIONARY
  5
65AD
102
{ACAD_REACTORS
330
C
102
}
330
C
100
AcDbDictionary
281
     1
  3
SORTENTS
350
65AE
  0
XRECORD
  5
7E1
102
{ACAD_REACTORS
330
C
102
}
330
C
100
AcDbXrecord
280
     1
  1
DWGPROPS COOKIE
  2

  3

  4

  6

  7

  8

  9

300
=
301
=
302
=
303
=
304
=
305
=
306
=
307
=
308
=
309
=
 40
0.1525764814814815
 41
2454873.622250069
 42
2455268.41966037
  1

 90
        0
  0
LAYOUT
  5
22
102
{ACAD_REACTORS
330
1A
102
}
330
1A
100
AcDbPlotSettings
  1

  2
RICOH IPSiO G515
  4
A3
  6

 40
5.873749732971191
 41
5.873747825622558
 42
5.873748779296875
 43
5.873748779296875
 44
296.9259948730469
 45
419.9466552734374
 46
0.0
 47
0.0
 48
0.0
 49
0.0
140
0.0
141
0.0
142
1.0
143
1.959971811730723
 70
 11952
 72
     1
 73
     1
 74
     1
  7

 75
     0
147
0.5102114193759578
148
117.6657051803588
149
-817.5266692991444
100
AcDbLayout
  1
Model
 70
     1
 71
     0
 10
0.0
 20
0.0
 11
12.0
 21
9.0
 12
0.0
 22
0.0
 32
0.0
 14
0.0
 24
0.0
 34
0.0
 15
0.0
 25
0.0
 35
0.0
146
0.0
 13
0.0
 23
0.0
 33
0.0
 16
1.0
 26
0.0
 36
0.0
 17
0.0
 27
1.0
 37
0.0
 76
     0
330
1F
  0
LAYOUT
  5
1E
102
{ACAD_REACTORS
330
1A
102
}
330
1A
100
AcDbPlotSettings
  1

  2
RICOH imagio MP C3500 RPCS
  4
A3
  6

 40
5.873749732971191
 41
5.873747825622558
 42
5.873748779296875
 43
5.873748779296875
 44
296.9259948730469
 45
419.9466552734374
 46
0.0
 47
0.0
 48
0.0
 49
0.0
140
0.0
141
0.0
142
1.0
143
1.0
 70
   688
 72
     1
 73
     1
 74
     5
  7

 75
    16
147
1.0
148
0.0
149
0.0
100
AcDbLayout
  1
ﾚｲｱｳﾄ1
 70
     1
 71
     1
 10
-5.873748779296875
 20
-5.873749732971191
 11
414.0729064941406
 21
291.0522451400757
 12
0.0
 22
0.0
 32
0.0
 14
1.042221639059562
 24
1.08829855961801
 34
0.0
 15
407.82803226079
 25
284.1844718556203
 35
0.0
146
0.0
 13
0.0
 23
0.0
 33
0.0
 16
1.0
 26
0.0
 36
0.0
 17
0.0
 27
1.0
 37
0.0
 76
     0
330
1B
331
2F
  0
LAYOUT
  5
26
102
{ACAD_REACTORS
330
1A
102
}
330
1A
100
AcDbPlotSettings
  1

  2
RICOH imagio Neo C380 RPCS
  4

  6

 40
0.0
 41
0.0
 42
0.0
 43
0.0
 44
0.0
 45
0.0
 46
0.0
 47
0.0
 48
0.0
 49
0.0
140
0.0
141
0.0
142
1.0
143
1.0
 70
   688
 72
     0
 73
     1
 74
     5
  7

 75
    16
147
1.0
148
0.0
149
0.0
100
AcDbLayout
  1
ﾚｲｱｳﾄ2
 70
     1
 71
     2
 10
0.0
 20
0.0
 11
0.0
 21
0.0
 12
0.0
 22
0.0
 32
0.0
 14
0.0
 24
0.0
 34
0.0
 15
0.0
 25
0.0
 35
0.0
146
0.0
 13
0.0
 23
0.0
 33
0.0
 16
1.0
 26
0.0
 36
0.0
 17
0.0
 27
1.0
 37
0.0
 76
     0
330
23
331
922
  0
MLINESTYLE
  5
18
102
{ACAD_REACTORS
330
17
102
}
330
17
100
AcDbMlineStyle
  2
STANDARD
 70
     0
  3

 62
   256
 51
90.0
 52
90.0
 71
     2
 49
0.5
 62
   256
  6
BYLAYER
 49
-0.5
 62
   256
  6
BYLAYER
  0
ACDBPLACEHOLDER
  5
F
102
{ACAD_REACTORS
330
E
102
}
330
E
  0
DICTIONARYVAR
  5
65AE
102
{ACAD_REACTORS
330
65AD
102
}
330
65AD
100
DictionaryVariables
280
     0
  1
96
  0
ENDSEC
  0
EOF
